<?xml version="1.0" standalone="no"?>
<!DOCTYPE svg PUBLIC "-//W3C//DTD SVG 1.1//EN" "http://www.w3.org/Graphics/SVG/1.1/DTD/svg11.dtd">
<svg xmlns="http://www.w3.org/2000/svg">
<defs >
<font id="Nunito" horiz-adv-x="586" ><font-face
    font-family="Nunito ExtraLight ExtraBold"
    units-per-em="1000"
    panose-1="0 0 0 0 0 0 0 0 0 0"
    ascent="1011"
    descent="-353"
    alphabetic="0" />
<glyph unicode=" " horiz-adv-x="279" />
<glyph unicode="!" horiz-adv-x="260" d="M131 217Q108 217 95 231T79 272L47 614Q42 659 64 686T131 714Q174 714 196 687T213 614L181 272Q178 245 166 231T131 217ZM131 -5Q91 -5 68 19T44 81Q44 118 67 141T131 165Q171 165 193 142T216 81Q216 43 194 19T131 -5Z" />
<glyph unicode="&quot;" horiz-adv-x="481" d="M128 398Q106 398 90 414T71 456L51 626Q47 663 69 688T128 714Q152 714 170 703T198 671T205 626L185 456Q182 430 167 414T128 398ZM353 398Q331 398 315 414T296 456L276 626Q272 663 294 688T353 714Q377 714
395 703T423 671T430 626L410 456Q407 430 392 414T353 398Z" />
<glyph unicode="#" horiz-adv-x="600" d="M129 -9Q102 -9 92 7T87 49L111 174L160 166H96Q79 166 67 171T49 186T43 212Q43 235 57 247T96 259H177L125 249L167 465L203 454H118Q101 454 89 460T71 476T64 502Q64 525 78 536T118 547H220L180 538L206 666Q211
690 225 702T263 714Q288 714 299 699T304 656L283 547H390L413 666Q419 690 433 702T471 714Q495 714 506 699T512 656L489 538L454 547H504Q521 547 533 542T551 527T557 502Q557 480 544 467T504 454H435L475 465L432 249L397 259H482Q500 259 511 254T529 238T536
212Q536 190 522 178T482 166H379L420 174L392 39Q387 14 373 3T336 -9Q311 -9 300 6T294 49L317 166H210L185 39Q181 14 167 3T129 -9ZM228 259H334L372 454H266L228 259Z" />
<glyph unicode="$" horiz-adv-x="600" d="M310 -124Q284 -124 267 -107T250 -64V18L277 -6Q208 -4 157 11T72 44Q50 55 42 74T35 113T49 149T80 170T125 162Q149 149 192 136T297 122Q343 122 371 132T411 160T424 199Q424 217 416 231T387 255T332 273L222 297Q130
317 85 365T40 491Q40 551 69 598T151 674T275 709L250 693V769Q250 794 267 811T310 829Q335 829 352 812T369 769V693L344 711Q385 709 432 696T515 657Q534 645 541 627T546 591T530 560T499 543T453 552Q426 565 394 574T315 583Q256 583 224 559T191 497Q191
469 210 452T279 424L390 400Q485 379 530 332T576 210Q576 151 547 106T467 32T348 -4L369 19V-64Q369 -89 353 -106T310 -124Z" />
<glyph unicode="%" horiz-adv-x="954" d="M346 13Q334 -7 317 -13T283 -16T255 0T240 31T249 69L608 691Q620 712 637 719T670 722T699 705T714 674T705 636L346 13ZM220 285Q133 285 85 343T37 501Q37 568 58 616T121 690T220 716Q306 716 354 658T403 501Q403
435 382 387T319 312T220 285ZM220 381Q240 381 253 393T274 432T282 501Q282 564 266 591T220 619Q200 619 186 607T165 570T158 501Q158 437 174 409T220 381ZM735 -11Q648 -11 600 48T552 206Q552 272 574 320T637 394T735 420Q821 420 869 362T918 206Q918
140 897 91T834 16T735 -11ZM735 86Q755 86 768 98T789 137T797 206Q797 269 781 296T735 324Q715 324 702 312T681 274T673 206Q673 141 689 114T735 86Z" />
<glyph unicode="&amp;" horiz-adv-x="745" d="M309 -11Q231 -11 174 14T85 83T54 186Q54 220 63 249T91 303T136 349T194 389L229 409L207 378Q165 418 146 458T126 540Q126 592 152 632T225 694T334 716Q420 716 470 673T520 555Q520 516 505 482T458 417T374
360L375 392L535 228H502Q515 248 524 272T541 323T552 378Q558 408 573 423T618 438Q649 438 664 421T676 371Q670 326 658 285T629 209T589 143L588 178L678 90Q702 68 702 45T685 7T637 -9Q610 -9 594 1T556 32L505 85H538Q493 41 434 15T309 -11ZM318 106Q361
106 394 122T457 169L453 133L250 335L314 331L287 316Q258 300 240 283T213 244T204 198Q204 155 234 131T318 106ZM334 613Q302 613 283 595T264 544Q264 527 270 512T289 479T327 436L295 438Q334 458 356 475T389 510T399 549Q399 581 382 597T334 613Z" />
<glyph unicode="&apos;" horiz-adv-x="256" d="M128 398Q106 398 90 414T71 456L51 626Q47 663 69 688T128 714Q152 714 170 703T198 671T205 626L185 456Q182 430 167 414T128 398Z" />
<glyph unicode="(" horiz-adv-x="382" d="M220 -159Q155 -61 127 46T99 263Q99 337 111 409T150 550T220 685Q233 706 255 711T297 709T327 678T325 622Q303 560 289 501T268 384T261 263Q261 200 268 142T289 26T325 -96Q337 -130 327 -152T297 -182T255 -185T220 -159Z" />
<glyph unicode=")" horiz-adv-x="382" d="M162 -159Q149 -180 127 -185T85 -182T55 -152T57 -96Q80 -33 94 25T114 142T121 263Q121 326 114 384T93 500T57 622Q45 656 54 678T84 708T127 712T162 685Q226 588 254 481T283 263Q283 190 271 118T232 -24T162 -159Z" />
<glyph unicode="*" horiz-adv-x="454" d="M125 352Q104 365 101 384T112 426L172 516L194 485L85 478Q59 476 43 488T27 525Q27 549 43 561T85 572L194 564L173 532L113 624Q98 647 101 666T126 697Q147 710 166 702T196 668L236 580H218L259 668Q269 693 288
701T329 697Q351 684 354 665T341 623L281 533L260 564L369 572Q395 574 411 562T427 525Q427 501 411 489T369 478L260 485L281 516L341 426Q357 404 354 385T329 353Q307 340 289 348T259 381L218 471H236L194 381Q183 357 165 349T125 352Z" />
<glyph unicode="+" horiz-adv-x="600" d="M300 31Q274 31 260 45T246 86V235H100Q75 235 61 248T47 287Q47 312 61 325T100 339H246V482Q246 509 260 523T301 537Q327 537 340 523T354 482V339H500Q526 339 539 326T553 287Q553 262 540 249T500 235H354V86Q354
60 341 46T300 31Z" />
<glyph unicode="," horiz-adv-x="260" d="M151 -114Q136 -132 119 -134T90 -128T77 -103T91 -67Q113 -39 121 -12T129 36L134 -5Q94 -5 69 18T44 81Q44 118 67 141T130 165Q171 165 194 138T217 60Q217 34 212 7T193 -50T151 -114Z" />
<glyph unicode="-" horiz-adv-x="440" d="M117 209Q92 209 75 226T57 268Q57 294 74 311T117 328H323Q348 328 365 311T383 268Q383 243 366 226T323 209H117Z" />
<glyph unicode="." horiz-adv-x="260" d="M131 -5Q91 -5 68 19T44 81Q44 118 67 141T131 165Q171 165 193 142T216 81Q216 43 194 19T131 -5Z" />
<glyph unicode="/" horiz-adv-x="331" d="M108 -26Q101 -48 86 -58T52 -68T18 -59T-4 -32T-3 9L223 714Q230 736 246 746T279 757T312 747T335 721T334 680L108 -26Z" />
<glyph unicode="0" horiz-adv-x="600" d="M300 -11Q172 -11 105 84T37 355Q37 472 67 552T156 674T300 716Q429 716 496 624T563 355Q563 238 533 157T444 32T300 -11ZM300 115Q358 115 386 172T414 355Q414 480 386 535T300 590Q242 590 214 535T186 355Q186
230 214 173T300 115Z" />
<glyph unicode="1" horiz-adv-x="600" d="M157 0Q125 0 108 17T91 64Q91 95 108 111T157 127H258V578H331L185 489Q162 475 143 478T109 495T91 528T94 567T124 601L263 685Q284 698 305 706T348 714Q378 714 395 699T413 651V127H504Q535 127 552 111T569 64Q569
33 552 17T504 0H157Z" />
<glyph unicode="2" horiz-adv-x="600" d="M138 0Q101 0 84 17T66 69Q66 91 77 110T107 149L295 347Q337 392 355 427T374 497Q374 541 346 564T263 587Q234 587 204 579T140 551Q118 539 100 542T68 559T51 592T55 630T85 662Q129 689 181 702T284 716Q363 716
417 693T499 624T527 514Q527 472 514 432T474 352T401 265L226 87V127H497Q529 127 545 111T562 64Q562 33 546 17T497 0H138Z" />
<glyph unicode="3" horiz-adv-x="600" d="M283 -11Q230 -11 176 1T81 37Q55 51 46 70T38 109T54 142T87 161T133 153Q172 134 207 126T277 118Q317 118 344 128T385 159T399 209Q399 251 370 272T285 293H226Q193 293 176 309T158 355Q158 385 175 401T226 418H270Q304
418 327 428T364 458T378 505Q378 545 351 566T271 587Q239 587 208 580T141 553Q119 542 100 546T69 564T53 596T57 634T89 665Q132 690 182 703T285 716Q361 716 415 693T498 628T527 525Q527 484 511 450T467 393T397 359V372Q468 360 508 313T548 195Q548 132
516 86T425 14T283 -11Z" />
<glyph unicode="4" horiz-adv-x="600" d="M410 -9Q374 -9 354 11T333 69V126H109Q72 126 50 142T28 193Q28 213 37 234T69 286L328 663Q345 688 366 701T414 714Q446 714 465 695T485 636V248H522Q555 248 572 233T589 187Q589 158 573 142T522 126H485V69Q485
31 466 11T410 -9ZM333 248V523H362L149 210V248H333Z" />
<glyph unicode="5" horiz-adv-x="600" d="M301 -11Q250 -11 196 2T97 41Q74 54 66 73T60 112T76 146T108 165T152 156Q187 138 223 128T298 118Q336 118 363 131T404 167T418 221Q418 269 388 298T305 327Q279 327 253 319T198 289Q188 281 172 274T138 267Q107
267 92 281T77 324V638Q77 671 94 688T144 705H465Q498 705 515 689T532 641Q532 611 515 595T465 578H226V387H188Q213 418 254 435T344 452Q411 452 461 424T539 344T567 226Q567 156 535 103T443 19T301 -11Z" />
<glyph unicode="6" horiz-adv-x="600" d="M327 -11Q237 -11 174 31T78 152T45 343Q45 432 66 501T128 618T226 691T358 716Q401 716 445 704T527 668Q547 658 554 640T559 602T544 569T514 550T471 556Q440 573 412 580T356 587Q303 587 266 563T211 491T192 372V307H178Q187
355 211 388T274 440T358 458Q418 458 464 429T538 348T565 230Q565 160 535 106T452 20T327 -11ZM319 110Q350 110 373 124T409 164T422 224Q422 258 410 283T374 323T319 338Q288 338 265 324T228 284T215 224Q215 190 228 164T264 124T319 110Z" />
<glyph unicode="7" horiz-adv-x="600" d="M175 -9Q146 -9 128 4T107 40T119 89L408 625V577H106Q73 577 56 593T39 641Q39 672 56 688T106 705H487Q519 705 539 688T560 640Q560 613 553 593T533 550L263 41Q249 15 228 3T175 -9Z" />
<glyph unicode="8" horiz-adv-x="600" d="M300 -11Q216 -11 156 13T64 82T32 192Q32 242 52 281T109 344T190 374V348Q127 362 89 409T50 524Q50 584 80 627T167 693T300 716Q377 716 433 693T520 627T551 524Q551 479 534 442T485 381T412 350V374Q481 364 524
315T568 192Q568 128 536 83T444 13T300 -11ZM300 108Q362 108 394 132T426 203Q426 250 394 273T300 297Q238 297 206 274T174 203Q174 156 206 132T300 108ZM300 416Q334 416 358 427T395 459T408 507Q408 549 380 573T300 597Q249 597 221 573T193 507Q193 465
221 441T300 416Z" />
<glyph unicode="9" horiz-adv-x="600" d="M242 -11Q199 -11 155 1T73 37Q53 47 46 65T41 103T56 136T86 155T129 149Q160 132 188 125T244 118Q297 118 334 142T389 214T408 333V398H422Q414 351 389 317T326 265T242 247Q183 247 136 276T62 358T35 475Q35 545
65 599T149 685T273 716Q364 716 426 675T522 554T555 362Q555 273 534 204T472 87T374 14T242 -11ZM282 368Q313 368 336 382T373 423T386 482Q386 516 373 542T337 582T282 596Q251 596 228 582T192 542T178 482Q178 449 191 423T228 383T282 368Z" />
<glyph unicode=":" horiz-adv-x="260" d="M131 -5Q91 -5 68 19T44 81Q44 118 67 141T131 165Q171 165 193 142T216 81Q216 43 194 19T131 -5ZM131 326Q91 326 68 350T44 411Q44 449 67 472T131 496Q171 496 193 473T216 411Q216 374 194 350T131 326Z" />
<glyph unicode=";" horiz-adv-x="260" d="M151 -114Q136 -132 119 -134T90 -128T77 -103T91 -67Q113 -39 121 -12T129 36L134 -5Q94 -5 69 18T44 81Q44 118 67 141T130 165Q171 165 194 138T217 60Q217 34 212 7T193 -50T151 -114ZM131 326Q91 326 68 350T44 411Q44
449 67 472T131 496Q171 496 193 473T216 411Q216 374 194 350T131 326Z" />
<glyph unicode="&lt;" horiz-adv-x="600" d="M489 54L104 211Q50 233 50 288Q50 315 63 333T104 363L489 521Q509 529 524 524T549 505T560 476T553 445T526 422L97 250V324L526 151Q545 143 553 129T560 98T550 69T525 51T489 54Z" />
<glyph unicode="=" horiz-adv-x="600" d="M100 335Q75 335 61 348T47 387Q47 412 61 425T100 439H500Q526 439 539 426T553 387Q553 362 540 349T500 335H100ZM100 136Q75 136 61 149T47 188Q47 212 61 225T100 239H500Q526 239 539 226T553 188Q553 162 540 149T500
136H100Z" />
<glyph unicode="&gt;" horiz-adv-x="600" d="M112 54Q92 46 76 51T51 69T41 98T47 128T75 151L504 324V250L75 422Q56 430 48 444T40 475T51 505T76 523T112 521L497 363Q551 341 551 288Q551 261 538 242T497 211L112 54Z" />
<glyph unicode="?" horiz-adv-x="468" d="M231 218Q209 218 197 232T184 272Q184 301 191 326T213 378T255 431Q273 452 284 467T300 497T305 527Q305 555 285 571T226 587Q190 587 160 578T100 552Q74 538 54 541T21 559T7 594T16 633T53 668Q94 692 144 704T237
716Q303 716 353 694T430 634T458 545Q458 514 449 487T420 434T365 378Q334 352 316 332T290 293T279 253Q276 238 265 228T231 218ZM229 -5Q189 -5 166 19T142 81Q142 118 165 141T229 165Q269 165 291 142T314 81Q314 43 292 19T229 -5Z" />
<glyph unicode="@" horiz-adv-x="952" d="M487 -166Q390 -166 310 -136T171 -48T82 89T50 265Q50 367 82 450T175 592T319 684T506 716Q625 716 714 670T853 539T902 340Q902 254 878 191T809 93T706 59Q644 59 609 92T568 185L606 204Q581 131 535 95T433 59Q352
59 307 110T262 249Q262 322 289 379T365 468T475 501Q528 501 561 475T607 397H587L595 443Q604 493 655 493Q683 493 696 478T704 433L673 260Q670 242 668 228T666 202Q666 172 678 159T713 145Q743 145 765 169T799 238T812 340Q812 432 775 496T670 593T505
627Q397 627 318 583T195 457T151 265Q151 159 192 82T309 -36T487 -77Q548 -77 599 -63T694 -23Q715 -10 732 -15T756 -37T759 -71T733 -102Q688 -131 626 -148T487 -166ZM457 151Q491 151 517 172T557 231T572 320Q572 363 554 385T496 408Q461 408 435 388T393
333T378 250Q378 202 398 177T457 151Z" />
<glyph unicode="A" horiz-adv-x="753" d="M91 -9Q63 -9 46 4T24 39T32 88L288 649Q304 683 326 698T377 714Q406 714 428 699T465 649L723 88Q736 61 733 39T712 4T668 -9Q634 -9 616 7T583 57L523 196L585 153H168L230 196L171 57Q156 22 140 7T91 -9ZM375 540L247
235L220 274H533L506 235L377 540H375Z" />
<glyph unicode="B" horiz-adv-x="695" d="M152 0Q113 0 92 21T71 81V624Q71 663 92 684T152 705H394Q469 705 522 683T602 620T630 522Q630 459 594 415T495 356V372Q568 359 608 315T649 199Q649 105 584 53T405 0H152ZM219 115H384Q444 115 472 138T500 208Q500
254 472 277T384 300H219V115ZM219 415H367Q425 415 453 437T481 503Q481 546 453 568T367 590H219V415Z" />
<glyph unicode="C" horiz-adv-x="684" d="M413 -11Q299 -11 218 34T94 160T50 353Q50 436 74 502T146 616T260 690T413 716Q463 716 514 704T604 668Q629 654 638 633T644 591T627 555T593 536T548 545Q518 563 485 571T418 579Q351 579 306 553T237 476T214 353Q214
281 237 230T305 153T418 126Q450 126 483 134T548 159Q574 172 594 169T628 151T645 116T641 76T611 42Q574 17 520 3T413 -11Z" />
<glyph unicode="D" horiz-adv-x="774" d="M152 0Q113 0 92 21T71 81V624Q71 663 92 684T152 705H347Q528 705 626 614T725 353Q725 268 700 203T626 92T508 24T347 0H152ZM226 127H338Q395 127 437 141T507 183T549 253T563 353Q563 467 507 522T338 578H226V127Z" />
<glyph unicode="E" horiz-adv-x="605" d="M152 0Q113 0 92 21T71 81V624Q71 663 92 684T152 705H501Q531 705 546 690T562 645Q562 615 547 600T501 584H219V419H478Q509 419 524 404T540 358Q540 328 525 313T478 297H219V121H501Q531 121 546 106T562 61Q562
31 547 16T501 0H152Z" />
<glyph unicode="F" horiz-adv-x="570" d="M150 -9Q112 -9 92 12T71 73V624Q71 663 92 684T152 705H494Q524 705 539 690T555 645Q555 615 540 600T494 584H226V412H472Q502 412 518 397T534 352Q534 323 518 307T472 291H226V73Q226 -9 150 -9Z" />
<glyph unicode="G" horiz-adv-x="742" d="M420 -11Q301 -11 219 34T93 160T50 350Q50 434 75 501T149 616T267 690T425 716Q479 716 533 704T637 664Q658 652 665 634T670 595T654 559T622 539T577 546Q544 564 507 572T426 581Q355 581 307 555T236 477T212 350Q212
237 266 179T428 121Q464 121 502 128T577 148L548 85V277H458Q428 277 412 292T396 333Q396 360 412 374T458 389H615Q645 389 660 373T676 327V95Q676 69 666 51T632 25Q587 9 531 -1T420 -11Z" />
<glyph unicode="H" horiz-adv-x="780" d="M149 -9Q111 -9 91 12T71 71V634Q71 672 91 693T149 714Q186 714 206 693T226 634V422H554V634Q554 672 574 693T631 714Q669 714 689 693T709 634V71Q709 33 689 12T631 -9Q594 -9 574 12T554 71V293H226V71Q226 33 207
12T149 -9Z" />
<glyph unicode="I" horiz-adv-x="297" d="M149 -9Q111 -9 91 12T71 71V634Q71 672 91 693T149 714Q186 714 206 693T226 634V71Q226 33 207 12T149 -9Z" />
<glyph unicode="J" horiz-adv-x="372" d="M57 -8Q23 -9 4 10T-15 59Q-15 82 -2 99T38 118L67 120Q107 123 127 143T147 204V635Q147 673 167 693T224 714Q262 714 282 694T302 635V206Q302 140 279 95T208 24T92 -6L57 -8Z" />
<glyph unicode="K" horiz-adv-x="688" d="M149 -9Q111 -9 91 12T71 71V635Q71 673 91 693T149 714Q186 714 206 694T226 635V398H228L494 676Q511 694 529 703T572 713Q607 713 622 695T636 653T614 608L347 335L348 402L628 103Q651 78 651 52T635 9T583 -9Q554
-9 537 3T498 38L228 322H226V71Q226 33 207 12T149 -9Z" />
<glyph unicode="L" horiz-adv-x="573" d="M150 0Q112 0 92 21T71 79V628Q71 667 91 687T149 707Q186 707 206 687T226 628V131H494Q526 131 543 114T561 66Q561 34 544 17T494 0H150Z" />
<glyph unicode="M" horiz-adv-x="876" d="M143 -9Q109 -9 91 10T73 63V642Q73 676 92 695T146 714Q176 714 193 703T226 663L457 241H423L654 663Q669 691 686 702T733 714Q767 714 785 695T804 642V63Q804 29 786 10T734 -9Q700 -9 682 10T663 63V468H685L499
135Q487 116 474 107T438 97Q416 97 402 107T377 135L189 469H213V63Q213 29 196 10T143 -9Z" />
<glyph unicode="N" horiz-adv-x="753" d="M143 -9Q108 -9 90 10T71 66V636Q71 674 89 694T139 714Q166 714 180 704T214 669L565 222H538V640Q538 675 556 694T610 714Q645 714 663 695T682 640V63Q682 30 665 11T619 -9Q591 -9 575 2T539 37L189 484H215V66Q215
30 197 11T143 -9Z" />
<glyph unicode="O" horiz-adv-x="796" d="M398 -11Q294 -11 216 34T94 162T50 353Q50 436 74 502T145 616T255 690T398 716Q504 716 582 671T703 545T747 354Q747 271 722 204T651 89T541 15T398 -11ZM398 121Q457 121 498 148T562 228T585 353Q585 463 536 523T398
584Q340 584 298 557T234 478T212 353Q212 244 261 183T398 121Z" />
<glyph unicode="P" horiz-adv-x="664" d="M149 -9Q111 -9 91 12T71 71V626Q71 665 91 685T150 705H393Q511 705 575 646T639 480Q639 374 575 314T393 254H226V71Q226 33 207 12T149 -9ZM226 374H367Q427 374 458 401T490 480Q490 532 459 558T367 584H226V374Z" />
<glyph unicode="Q" horiz-adv-x="796" d="M684 -101Q700 -127 696 -148T676 -184T638 -203T593 -199T554 -166L483 -50Q470 -30 450 -21T397 -11L515 34Q561 34 590 18T644 -37L684 -101ZM398 -11Q294 -11 216 34T94 162T50 353Q50 436 74 502T145 616T255 690T398
716Q504 716 582 671T703 545T747 354Q747 271 722 204T651 89T541 15T398 -11ZM398 121Q457 121 498 148T562 228T585 353Q585 463 536 523T398 584Q340 584 298 557T234 478T212 353Q212 244 261 183T398 121Z" />
<glyph unicode="R" horiz-adv-x="696" d="M149 -9Q111 -9 91 12T71 71V626Q71 665 91 685T150 705H393Q511 705 575 648T639 489Q639 423 610 375T527 301T393 275L401 292H442Q484 292 515 272T570 209L632 94Q646 69 645 45T627 6T577 -9Q544 -9 524 5T487 48L391
225Q376 253 355 263T302 273H226V71Q226 33 207 12T149 -9ZM226 385H365Q427 385 458 410T490 485Q490 534 459 559T365 584H226V385Z" />
<glyph unicode="S" horiz-adv-x="641" d="M323 -11Q281 -11 238 -5T155 14T84 44Q62 56 53 75T46 115T61 150T93 170T137 163Q178 140 226 129T323 118Q396 118 427 140T458 197Q458 226 436 243T359 272L246 296Q150 316 104 364T57 492Q57 542 78 583T137 654T227
700T343 716Q399 716 453 703T548 663Q568 651 575 633T581 596T566 563T534 545T488 554Q455 571 418 579T342 587Q300 587 271 576T226 545T210 499Q210 470 231 452T304 423L417 399Q515 378 563 332T611 209Q611 159 591 119T533 49T442 5T323 -11Z" />
<glyph unicode="T" horiz-adv-x="632" d="M317 -9Q279 -9 259 12T239 71V577H62Q31 577 14 594T-3 641Q-3 672 14 688T62 705H571Q602 705 619 689T636 641Q636 611 619 594T571 577H394V71Q394 33 375 12T317 -9Z" />
<glyph unicode="U" horiz-adv-x="743" d="M373 -11Q298 -11 241 8T144 66T86 161T66 295V635Q66 674 86 694T144 714Q181 714 201 694T221 635V294Q221 208 260 165T373 121Q447 121 485 164T524 294V635Q524 674 544 694T601 714Q638 714 657 694T677 635V295Q677
194 643 126T541 23T373 -11Z" />
<glyph unicode="V" horiz-adv-x="727" d="M364 -9Q332 -9 312 5T278 50L26 610Q12 640 18 663T43 700T89 714Q123 714 141 699T171 653L392 142H342L563 654Q576 684 594 699T644 714Q671 714 688 701T710 664T702 610L450 50Q436 20 417 6T364 -9Z" />
<glyph unicode="W" horiz-adv-x="1120" d="M332 -9Q300 -9 280 6T248 54L46 622Q33 660 51 687T116 714Q148 714 165 699T194 652L359 161H316L490 651Q502 683 519 698T566 714Q594 714 611 699T640 650L806 161H769L937 652Q947 683 965 698T1014 714Q1053 714
1071 687T1075 622L871 53Q860 22 841 7T789 -9Q757 -9 738 6T707 54L549 501H573L413 53Q401 22 383 7T332 -9Z" />
<glyph unicode="X" horiz-adv-x="685" d="M115 -9Q85 -9 66 7T43 48T59 99L280 392V323L68 605Q49 632 51 656T73 697T122 714Q147 714 165 702T203 664L368 436H318L482 664Q501 691 520 702T564 714Q594 714 613 698T635 658T618 605L405 323V392L625 99Q645
73 643 49T621 8T570 -9Q546 -9 528 3T489 42L317 279H368L196 42Q177 15 158 3T115 -9Z" />
<glyph unicode="Y" horiz-adv-x="631" d="M316 -9Q278 -9 258 12T238 72V362L270 273L34 608Q20 629 22 653T42 696T93 714Q117 714 136 702T174 664L334 433H302L462 664Q481 691 499 702T543 714Q575 714 593 698T612 657T595 606L362 273L393 362V72Q393 -9 316 -9Z" />
<glyph unicode="Z" horiz-adv-x="615" d="M117 0Q87 0 68 12T43 46T42 94T70 146L434 623V576H105Q72 576 55 593T37 641Q37 672 54 688T105 705H507Q538 705 556 693T582 659T582 612T554 559L190 83V129H535Q568 129 585 113T603 65Q603 33 586 17T535 0H117Z" />
<glyph unicode="[" horiz-adv-x="377" d="M167 -180Q140 -180 122 -162T104 -118V643Q104 670 122 687T167 705H311Q339 705 355 689T371 649Q371 625 355 609T311 593H255V-68H311Q339 -68 355 -84T371 -124Q371 -148 355 -164T311 -180H167Z" />
<glyph unicode="\" horiz-adv-x="331" d="M223 -26L-3 680Q-11 703 -4 720T18 746T51 756T85 747T108 714L334 9Q342 -15 335 -32T313 -58T279 -68T246 -58T223 -26Z" />
<glyph unicode="]" horiz-adv-x="377" d="M65 -180Q39 -180 23 -164T6 -124Q6 -100 22 -84T65 -68H122V593H65Q39 593 23 609T6 649Q6 673 22 689T65 705H210Q237 705 255 688T273 643V-118Q273 -144 255 -162T210 -180H65Z" />
<glyph unicode="^" horiz-adv-x="600" d="M116 131Q80 131 69 152T69 202L227 587Q238 613 255 625T300 637Q352 637 373 587L531 202Q543 173 532 152T484 131Q465 131 452 140T429 176L264 587H337L171 176Q161 150 149 141T116 131Z" />
<glyph unicode="_" horiz-adv-x="500" d="M57 -88Q38 -88 25 -76T11 -44Q11 -25 24 -13T57 0H443Q463 0 476 -12T489 -44Q489 -63 476 -75T443 -88H57Z" />
<glyph unicode="`" horiz-adv-x="388" d="M205 562L111 692Q98 712 101 729T117 759T148 777T184 776T212 748L283 607Q292 589 286 574T265 550T233 544T205 562Z" />
<glyph unicode="a" horiz-adv-x="557" d="M224 -11Q170 -11 127 10T60 67T36 148Q36 202 64 233T155 278T322 292H375V214H323Q272 214 241 209T196 190T182 154Q182 126 201 108T258 90Q287 90 309 103T345 140T358 194V309Q358 353 338 371T270 390Q243 390
212 384T142 362Q120 352 103 357T77 377T68 409T78 443T111 468Q158 487 199 494T276 501Q353 501 402 479T477 410T502 290V68Q502 31 484 11T432 -9Q398 -9 380 11T361 68V105L368 99Q362 65 343 41T293 3T224 -11Z" />
<glyph unicode="b" horiz-adv-x="610" d="M361 -11Q302 -11 257 18T196 97L207 130V68Q207 31 188 11T133 -9Q97 -9 78 11T58 68V637Q58 675 77 694T134 714Q170 714 189 695T209 637V400H197Q213 445 258 473T361 501Q426 501 474 470T549 382T576 246Q576 167
549 109T474 20T361 -11ZM316 102Q348 102 372 118T410 165T424 246Q424 319 394 353T316 388Q284 388 260 373T221 327T207 246Q207 173 237 138T316 102Z" />
<glyph unicode="c" horiz-adv-x="478" d="M297 -11Q217 -11 158 20T66 110T34 247Q34 306 52 353T104 433T188 483T297 501Q328 501 363 494T432 468Q452 459 459 443T465 409T453 378T426 360T390 365Q371 376 351 381T312 386Q282 386 259 377T221 350T197 306T188
246Q188 180 220 143T312 105Q330 105 350 109T390 125Q410 135 426 130T451 112T462 81T457 47T430 21Q396 4 362 -3T297 -11Z" />
<glyph unicode="d" horiz-adv-x="610" d="M249 -11Q185 -11 137 20T61 109T34 246Q34 325 61 382T136 470T249 501Q307 501 351 473T412 400H401V637Q401 675 420 694T476 714Q512 714 532 695T552 637V68Q552 31 533 11T477 -9Q441 -9 422 11T402 68V136L413
97Q399 48 354 19T249 -11ZM294 102Q327 102 351 118T389 165T403 246Q403 319 373 353T294 388Q262 388 238 373T200 327T186 246Q186 173 216 138T294 102Z" />
<glyph unicode="e" horiz-adv-x="549" d="M313 -11Q226 -11 164 20T68 109T34 245Q34 321 66 378T155 468T286 501Q339 501 382 484T456 434T503 355T519 251Q519 232 507 223T472 213H158V291H410L394 277Q394 318 382 345T348 387T292 401Q255 401 229 384T189
335T175 258V250Q175 174 210 138T316 102Q340 102 371 108T429 127Q452 138 470 135T498 118T509 88T502 55T472 27Q438 8 396 -1T313 -11Z" />
<glyph unicode="f" horiz-adv-x="382" d="M172 -9Q135 -9 116 11T96 68V378H60Q32 378 17 393T1 434Q1 462 16 476T60 491H140L96 451V482Q96 589 149 642T307 706L339 709Q365 711 380 701T401 675T403 643T390 614T361 600L347 599Q293 595 270 574T247 508V474L228
491H318Q347 491 362 477T377 434Q377 408 362 393T318 378H247V68Q247 -9 172 -9Z" />
<glyph unicode="g" horiz-adv-x="615" d="M294 -191Q240 -191 191 -182T103 -155Q80 -145 71 -129T62 -95T74 -63T101 -44T135 -46Q179 -66 216 -72T281 -78Q345 -78 377 -49T409 40V116H418Q403 70 356 41T252 12Q186 12 137 42T61 128T34 257Q34 312 49 357T93
434T162 483T252 501Q311 501 356 473T417 398L407 366V423Q407 460 426 479T482 499Q518 499 537 480T556 423V57Q556 -66 489 -128T294 -191ZM297 125Q331 125 355 141T394 186T408 257Q408 319 378 353T297 388Q263 388 238 373T200 328T186 257Q186 195 216
160T297 125Z" />
<glyph unicode="h" horiz-adv-x="595" d="M134 -9Q97 -9 78 11T58 68V637Q58 675 77 694T134 714Q170 714 189 695T209 637V399H195Q218 448 263 474T367 501Q426 501 464 479T521 411T540 295V68Q540 31 521 11T464 -9Q428 -9 409 11T389 68V288Q389 339 371
361T314 384Q266 384 238 354T209 274V68Q209 -9 134 -9Z" />
<glyph unicode="i" horiz-adv-x="268" d="M134 -8Q97 -8 78 13T58 74V416Q58 456 77 477T134 499Q170 499 189 478T209 416V74Q209 35 190 14T134 -8ZM134 581Q92 581 70 600T47 656Q47 693 69 712T134 732Q176 732 198 713T220 656Q220 620 198 601T134 581Z" />
<glyph unicode="j" horiz-adv-x="273" d="M14 -188Q-13 -189 -29 -179T-51 -154T-55 -122T-41 -94T-11 -80Q28 -77 45 -59T63 -2V423Q63 460 83 479T139 499Q175 499 194 480T214 423V12Q214 -54 193 -97T127 -162T14 -188ZM138 581Q97 581 75 600T52 656Q52 693
74 712T138 732Q180 732 202 713T224 656Q224 620 202 601T138 581Z" />
<glyph unicode="k" horiz-adv-x="558" d="M134 -9Q97 -9 78 11T58 68V637Q58 675 77 694T134 714Q170 714 189 695T209 637V288H211L356 449Q378 474 396 486T446 499Q477 499 493 483T510 445T491 399L338 228V285L508 89Q527 66 525 43T504 6T458 -9Q424 -9
404 4T362 44L211 212H209V68Q209 -9 134 -9Z" />
<glyph unicode="l" horiz-adv-x="333" d="M235 -11Q146 -11 102 38T58 186V637Q58 675 77 694T134 714Q170 714 189 695T209 637V192Q209 151 226 132T273 112Q281 112 288 113T303 114Q319 116 325 105T332 59Q332 29 320 14T283 -7Q273 -8 260 -9T235 -11Z" />
<glyph unicode="m" horiz-adv-x="889" d="M136 -9Q99 -9 80 11T60 68V423Q60 460 79 479T134 499Q170 499 189 480T208 423V359L197 399Q217 445 259 473T358 501Q415 501 453 474T507 391H493Q515 442 560 471T665 501Q722 501 758 479T813 411T831 295V68Q831
31 812 11T756 -9Q719 -9 700 11T680 68V290Q680 339 665 361T612 384Q569 384 545 354T521 269V68Q521 31 502 11T446 -9Q410 -9 390 11T370 68V290Q370 339 355 361T302 384Q259 384 235 354T211 269V68Q211 -9 136 -9Z" />
<glyph unicode="n" horiz-adv-x="595" d="M134 -9Q97 -9 78 11T58 68V423Q58 460 77 479T132 499Q168 499 187 480T206 423V366L195 399Q218 448 263 474T367 501Q426 501 464 479T521 411T540 295V68Q540 31 521 11T464 -9Q428 -9 409 11T389 68V288Q389 339
371 361T314 384Q266 384 238 354T209 274V68Q209 -9 134 -9Z" />
<glyph unicode="o" horiz-adv-x="589" d="M294 -11Q215 -11 157 20T66 109T34 246Q34 305 52 352T104 432T187 483T294 501Q373 501 431 470T522 382T555 246Q555 186 537 139T484 58T402 7T294 -11ZM294 102Q327 102 351 118T389 165T403 246Q403 319 373 353T294
388Q262 388 238 373T200 327T186 246Q186 173 216 138T294 102Z" />
<glyph unicode="p" horiz-adv-x="610" d="M134 -189Q97 -189 78 -170T58 -112V423Q58 460 77 479T132 499Q169 499 188 480T207 423V355L196 394Q211 442 256 471T361 501Q425 501 473 470T549 382T576 246Q576 167 549 109T474 20T361 -11Q303 -11 258 17T197
92H209V-112Q209 -150 190 -169T134 -189ZM316 102Q348 102 372 118T410 165T424 246Q424 319 394 353T316 388Q284 388 260 373T221 327T207 246Q207 173 237 138T316 102Z" />
<glyph unicode="q" horiz-adv-x="610" d="M476 -189Q439 -189 420 -170T401 -112V92H412Q396 46 352 18T249 -11Q185 -11 137 20T61 109T34 246Q34 325 61 382T136 470T249 501Q308 501 353 472T413 394L402 355V423Q402 460 421 479T477 499Q513 499 532 480T552
423V-112Q552 -150 532 -169T476 -189ZM294 102Q327 102 351 118T389 165T403 246Q403 319 373 353T294 388Q262 388 238 373T200 327T186 246Q186 173 216 138T294 102Z" />
<glyph unicode="r" horiz-adv-x="412" d="M136 -9Q98 -9 78 11T58 68V423Q58 460 77 479T132 499Q168 499 187 480T206 423V371H196Q208 431 249 464T355 501Q380 503 393 489T408 441Q410 410 396 392T347 370L324 368Q267 363 240 335T212 254V68Q212 31 193
11T136 -9Z" />
<glyph unicode="s" horiz-adv-x="492" d="M246 -11Q202 -11 156 -3T71 24Q51 34 43 49T35 81T45 110T70 127T105 124Q146 107 180 100T247 93Q290 93 309 106T329 142Q329 162 316 172T278 186L173 205Q111 216 78 250T44 339Q44 389 72 425T149 481T262 501Q307
501 345 493T418 467Q436 458 443 443T449 412T436 383T411 366T375 370Q343 385 316 391T264 398Q219 398 199 384T179 347Q179 330 190 319T226 303L331 284Q396 273 430 241T464 152Q464 76 405 33T246 -11Z" />
<glyph unicode="t" horiz-adv-x="404" d="M299 -11Q230 -11 184 12T115 79T92 190V378H50Q22 378 7 393T-9 434Q-9 462 6 476T50 491H92V567Q92 605 112 624T168 644Q205 644 224 625T243 567V491H338Q366 491 381 477T396 434Q396 408 381 393T338 378H243V196Q243
154 262 133T325 112Q340 112 353 115T377 119Q391 120 400 111T409 69Q409 45 401 27T373 1Q360 -4 338 -7T299 -11Z" />
<glyph unicode="u" horiz-adv-x="590" d="M239 -11Q177 -11 136 12T76 81T56 197V423Q56 461 75 480T131 499Q167 499 187 480T207 423V193Q207 149 225 128T282 106Q325 106 352 136T380 217V423Q380 461 399 480T455 499Q492 499 511 480T531 423V68Q531 -9
458 -9Q422 -9 403 11T384 68V135L399 96Q377 45 336 17T239 -11Z" />
<glyph unicode="v" horiz-adv-x="534" d="M266 -9Q237 -9 215 6T180 53L29 401Q18 427 21 449T42 485T94 499Q121 499 138 487T168 439L286 139H254L377 440Q391 474 408 486T455 499Q481 499 496 486T515 450T507 402L353 53Q340 21 319 6T266 -9Z" />
<glyph unicode="w" horiz-adv-x="861" d="M260 -9Q230 -9 209 5T175 52L34 401Q23 429 27 450T48 485T97 499Q123 499 140 487T169 439L279 146H256L370 452Q378 476 393 487T434 499Q459 499 474 487T499 452L611 146H592L701 443Q713 475 732 487T773 499Q801
499 816 485T834 449T826 401L686 52Q674 21 653 6T601 -9Q572 -9 551 6T516 52L396 364H461L344 53Q332 22 311 7T260 -9Z" />
<glyph unicode="x" horiz-adv-x="559" d="M110 -7Q82 -7 65 8T48 48T67 97L222 287V219L78 395Q57 421 58 445T76 484T121 499Q148 499 166 490T200 460L307 323H254L361 460Q378 481 396 490T440 499Q468 499 485 484T502 444T482 395L338 219V287L494 97Q515
73 514 49T496 9T450 -7Q423 -7 406 2T371 32L254 181H305L188 32Q172 13 155 3T110 -7Z" />
<glyph unicode="y" horiz-adv-x="533" d="M192 -189Q166 -189 149 -175T129 -139T137 -91L204 57V-5L27 401Q17 427 20 449T42 485T94 499Q121 499 137 487T168 439L286 139H254L376 440Q390 474 407 486T455 499Q481 499 496 486T515 450T507 402L272 -131Q257
-165 239 -177T192 -189Z" />
<glyph unicode="z" horiz-adv-x="480" d="M100 0Q78 0 63 11T43 41T43 80T66 119L311 413V378H94Q67 378 52 393T37 434Q37 462 52 476T94 491H383Q410 491 426 479T447 450T449 412T427 373L176 73V112H408Q465 112 465 56Q465 29 450 15T408 0H100Z" />
<glyph unicode="{" horiz-adv-x="414" d="M274 -180Q233 -180 203 -165T157 -119T141 -47V127Q141 167 128 185T79 204Q56 206 44 222T31 263Q31 286 43 302T79 320Q114 322 127 340T141 398V572Q141 635 176 670T274 705H346Q373 705 390 689T408 649Q408 625
394 609T356 593H330Q311 593 302 582T292 549V379Q292 348 279 321T243 277T193 260V264Q220 264 242 248T278 204T292 145V-24Q292 -46 301 -57T331 -68H356Q380 -68 394 -84T408 -124Q408 -148 391 -164T346 -180H274Z" />
<glyph unicode="|" horiz-adv-x="302" d="M151 -189Q115 -189 96 -170T76 -113V637Q76 675 95 694T151 714Q187 714 207 695T227 637V-113Q227 -189 151 -189Z" />
<glyph unicode="}" horiz-adv-x="414" d="M68 -180Q42 -180 24 -164T6 -124Q6 -100 20 -84T58 -68H83Q103 -68 112 -57T122 -24V145Q122 177 135 204T172 247T221 264V260Q195 260 172 277T136 321T122 379V549Q122 571 113 582T84 593H58Q34 593 20 609T6 649Q6
673 24 689T68 705H140Q182 705 212 690T257 645T273 572V398Q273 358 287 340T335 320Q358 319 370 303T383 262Q383 239 371 223T335 204Q301 203 287 185T273 127V-47Q273 -110 238 -145T140 -180H68Z" />
<glyph unicode="~" horiz-adv-x="600" d="M406 204Q382 204 356 212T293 239Q258 258 238 265T203 273Q188 273 174 268T146 244Q132 225 114 224T83 234T65 263T74 300Q96 335 127 353T194 371Q218 371 245 363T308 336Q338 320 360 311T397 302Q412 302 426
308T454 331Q469 350 486 350T518 341T536 312T527 275Q504 240 473 222T406 204Z" />
<glyph unicode="&#xa0;" horiz-adv-x="279" />
<glyph unicode="&#xa1;" horiz-adv-x="260" d="M131 -189Q86 -189 64 -162T47 -89L79 219Q82 246 95 260T131 274Q153 274 166 260T181 219L212 -89Q217 -134 196 -161T131 -189ZM131 326Q91 326 68 350T44 411Q44 449 67 472T131 496Q171 496 193 473T216 411Q216
374 194 350T131 326Z" />
<glyph unicode="&#xa2;" horiz-adv-x="600" d="M319 -124Q294 -124 277 -107T260 -63V30L285 -4Q221 7 174 41T102 127T77 245Q77 292 91 333T133 406T199 461T285 491L260 456V558Q260 585 277 602T319 619Q346 619 362 602T379 558V465L344 497Q383 496 422
487T492 461Q510 451 517 435T522 402T508 372T481 354T444 359Q425 370 402 375T357 381Q327 381 304 372T264 344T240 302T231 248Q231 189 263 151T356 112Q375 112 397 117T444 134Q467 144 483 140T509 121T520 90T514 56T486 29Q457 13 419 3T342 -8L379
22V-63Q379 -89 363 -106T319 -124Z" />
<glyph unicode="&#xa3;" horiz-adv-x="600" d="M97 0Q70 0 52 18T33 63Q33 90 51 107T97 125H146L117 101V332L145 305H84Q62 305 48 319T33 354Q33 376 47 389T84 402H145L117 373V489Q117 556 144 607T226 687T365 716Q413 716 461 704T541 670Q563 657 571
639T576 603T560 571T528 555T485 564Q459 580 431 586T375 593Q322 593 297 568T272 495V376L257 402H387Q409 402 423 389T438 354Q438 333 424 319T387 305H272V125H511Q539 125 557 108T575 63Q575 36 557 18T511 0H97Z" />
<glyph unicode="&#xa4;" horiz-adv-x="600" d="M48 -13Q36 -1 36 15T48 44L101 99Q80 130 68 167T55 245Q55 286 67 323T101 392L48 447Q36 459 36 474T48 503Q60 515 76 515T105 502L158 448Q188 469 223 481T298 493Q337 493 372 482T437 449L489 502Q502 515
519 515T550 504Q563 490 563 473T550 443L496 389Q518 358 529 322T540 245Q540 205 529 168T495 100L549 44Q561 32 561 16T550 -12Q538 -23 522 -23T494 -10L440 44Q410 22 374 10T298 -3Q259 -3 223 9T157 42L104 -11Q92 -23 76 -24T48 -13ZM298 116Q332 116
359 133T403 180T419 245Q419 281 403 310T360 357T298 375Q265 375 237 358T193 311T176 245Q176 210 192 181T236 134T298 116Z" />
<glyph unicode="&#xa5;" horiz-adv-x="600" d="M300 -9Q262 -9 242 12T222 72V154H109Q84 154 71 166T57 202Q57 225 70 237T109 250H222V312H109Q84 312 71 324T57 360Q57 383 70 395T109 407H194V385L38 615Q25 634 28 657T48 697T96 714Q120 714 137 703T169
667L316 439H283L431 667Q447 692 464 703T506 714Q536 714 554 698T574 659T560 612L406 385V407H491Q516 407 529 395T543 360Q543 337 530 325T491 312H377V250H491Q516 250 529 238T543 202Q543 179 530 167T491 154H377V72Q377 -9 300 -9Z" />
<glyph unicode="&#xa6;" horiz-adv-x="302" d="M151 363Q115 363 96 382T76 439V637Q76 675 95 694T151 714Q187 714 207 695T227 637V439Q227 363 151 363ZM151 -189Q115 -189 96 -170T76 -112V86Q76 123 95 143T151 163Q187 163 207 143T227 86V-112Q227 -189
151 -189Z" />
<glyph unicode="&#xa7;" horiz-adv-x="584" d="M272 -191Q219 -191 172 -182T88 -153Q68 -144 61 -129T55 -97T68 -68T95 -51T130 -55Q161 -69 199 -77T271 -86Q301 -86 322 -78T356 -54T369 -14Q369 10 355 28T302 64L167 124Q119 146 89 172T45 229T31 297Q31
347 56 388T130 459L118 419Q96 439 84 466T72 527Q72 586 102 628T185 693T311 716Q363 716 408 707T489 679Q507 670 514 655T519 623T507 594T482 576T445 580Q415 595 380 603T311 611Q282 611 261 603T228 579T216 539Q216 515 230 497T282 461L417 401Q466
379 496 353T539 296T553 228Q553 178 528 137T455 66L466 106Q488 87 500 59T512 -2Q512 -60 483 -102T399 -168T272 -191ZM164 325Q164 297 183 274T244 230L362 177Q382 167 398 157T426 135L392 130Q407 146 414 164T421 200Q421 229 402 252T340 295L222 348Q203
357 186 368T158 390L193 395Q179 379 172 361T164 325Z" />
<glyph unicode="&#xa8;" horiz-adv-x="538" d="M368 585Q334 585 316 603T297 656Q297 690 315 708T368 726Q402 726 420 708T438 656Q438 622 420 604T368 585ZM171 585Q137 585 119 603T100 656Q100 690 118 708T171 726Q205 726 223 708T241 656Q241 622 223
604T171 585Z" />
<glyph unicode="&#xa9;" horiz-adv-x="815" d="M408 -11Q331 -11 265 17T149 94T72 210T44 353Q44 430 71 496T148 611T264 688T408 716Q485 716 551 689T666 612T743 496T771 353Q771 276 744 210T667 95T551 17T408 -11ZM408 48Q473 48 528 71T623 135T686 232T709
353Q709 418 687 473T624 570T528 634T408 657Q343 657 288 634T192 570T129 474T106 353Q106 288 128 233T192 136T288 71T408 48ZM429 137Q327 137 267 195T206 354Q206 454 266 511T429 568Q455 568 483 562T540 542Q557 535 564 521T571 491T563 464T542 448T511
452Q493 461 476 465T440 470Q390 470 362 440T333 353Q333 298 361 267T440 235Q458 235 475 239T511 252Q533 262 548 254T569 228T571 194T545 165Q518 151 488 144T429 137Z" />
<glyph unicode="&#xaa;" horiz-adv-x="346" d="M134 406Q82 406 51 433T19 502Q19 550 60 570T187 590H234V541H190Q148 541 131 532T114 505Q114 490 125 480T160 469Q179 469 193 477T215 502T224 540V598Q224 622 209 633T162 645Q148 645 130 642T87 632Q68
627 56 634T41 654T44 680T70 699Q97 709 122 712T170 716Q220 716 253 702T302 661T318 593V452Q318 406 274 406Q252 406 240 420T228 453V468H226Q211 437 189 422T134 406Z" />
<glyph unicode="&#xab;" horiz-adv-x="525" d="M217 80Q197 71 177 76T144 101L70 217Q54 241 54 265T70 315L142 431Q155 451 175 456T216 452Q238 442 246 420T242 371L193 266L242 159Q254 135 247 112T217 80ZM439 80Q419 71 399 76T366 101L292 217Q276 241
276 265T292 315L364 431Q377 451 397 456T438 452Q460 442 468 420T464 371L415 266L464 159Q476 135 469 112T439 80Z" />
<glyph unicode="&#xac;" horiz-adv-x="600" d="M490 126Q464 126 450 140T436 181V336H100Q75 336 61 349T47 387Q47 412 61 425T100 439H489Q516 439 530 425T544 384V181Q544 126 490 126Z" />
<glyph unicode="&#xad;" horiz-adv-x="440" d="M117 209Q92 209 75 226T57 268Q57 294 74 311T117 328H323Q348 328 365 311T383 268Q383 243 366 226T323 209H117Z" />
<glyph unicode="&#xae;" horiz-adv-x="815" d="M408 -11Q331 -11 265 17T149 94T72 210T44 353Q44 430 71 496T148 611T264 688T408 716Q485 716 551 689T666 612T743 496T771 353Q771 276 744 210T667 95T551 17T408 -11ZM408 48Q473 48 528 71T623 135T686 232T709
353Q709 418 687 473T624 570T528 634T408 657Q343 657 288 634T192 570T129 474T106 353Q106 288 128 233T192 136T288 71T408 48ZM303 136Q246 136 246 194V498Q246 530 263 547T313 565H436Q509 565 547 530T586 439Q586 381 549 351T443 320L471 331Q503 331
523 317T556 256L572 204Q582 169 565 153T516 136Q496 136 483 148T465 181L441 264Q435 284 423 291T393 298H342L360 310V194Q360 136 303 136ZM359 381H420Q449 381 464 393T479 432Q479 459 464 471T420 483H359V381Z" />
<glyph unicode="&#xaf;" horiz-adv-x="539" d="M144 611Q100 611 100 653Q100 674 111 685T144 696H394Q439 696 439 653Q439 633 428 622T394 611H144Z" />
<glyph unicode="&#xb0;" horiz-adv-x="384" d="M192 399Q146 399 109 419T51 476T30 558Q30 603 51 638T109 694T192 715Q239 715 275 695T332 639T354 558Q354 512 333 476T275 420T192 399ZM192 480Q224 480 245 502T266 558Q266 590 245 612T192 635Q160 635
139 613T118 558Q118 524 139 502T192 480Z" />
<glyph unicode="&#xb1;" horiz-adv-x="600" d="M300 137Q274 137 260 151T246 192V287H101Q75 287 61 300T47 339Q47 364 61 377T101 391H246V485Q246 512 260 526T301 540Q327 540 340 526T354 485V391H500Q526 391 539 378T553 339Q553 314 540 301T500 287H354V192Q354
166 341 152T300 137ZM100 0Q75 0 61 13T47 52Q47 76 61 89T100 103H500Q526 103 539 90T553 52Q553 27 540 14T500 0H100Z" />
<glyph unicode="&#xb2;" horiz-adv-x="380" d="M96 282Q72 282 57 297T41 336Q41 355 49 368T71 396L162 489Q184 512 193 530T203 567Q203 589 191 600T152 612Q138 612 123 608T95 596Q74 586 58 593T34 616T33 651T61 681Q86 695 118 702T182 709Q228 709 261
694T313 651T332 585Q332 553 317 523T265 456L181 372V380H307Q357 380 357 331Q357 308 344 295T307 282H96Z" />
<glyph unicode="&#xb3;" horiz-adv-x="380" d="M184 277Q146 277 113 284T53 306Q32 316 27 333T28 367T51 391T91 387Q110 379 129 375T168 371Q200 371 216 382T233 415Q233 433 220 440T180 448H137Q114 448 101 460T88 494Q88 517 101 529T137 541H168Q193
541 206 550T220 577Q220 594 206 604T161 615Q146 615 130 611T98 601Q75 590 58 596T34 619T33 652T60 681Q87 695 119 702T184 709Q255 709 295 679T336 597Q336 556 309 528T241 492V506Q290 503 319 475T348 399Q348 362 327 334T270 292T184 277Z" />
<glyph unicode="&#xb4;" horiz-adv-x="388" d="M184 562Q172 546 156 544T124 550T103 573T105 607L176 748Q186 770 203 776T239 777T271 760T288 729T277 692L184 562Z" />
<glyph unicode="&#xb5;" horiz-adv-x="600" d="M138 -189Q102 -189 83 -170T63 -112V423Q63 461 82 480T138 499Q175 499 194 480T214 423V194Q214 150 232 129T289 108Q332 108 360 138T388 218V423Q388 461 407 480T463 499Q499 499 519 480T539 423V68Q539
-9 465 -9Q430 -9 411 9T391 55V96H393Q383 45 353 17T285 -11Q254 -11 233 1T199 41H202L209 -110Q212 -147 194 -168T138 -189Z" />
<glyph unicode="&#xb6;" horiz-adv-x="645" d="M305 -189Q279 -189 266 -175T252 -135V265Q186 265 136 293T59 370T31 486Q31 552 58 601T136 677T254 705H503Q538 705 556 687T575 634V-135Q575 -189 522 -189Q496 -189 483 -175T469 -135V600H358V-135Q358
-189 305 -189Z" />
<glyph unicode="&#xb7;" horiz-adv-x="260" d="M131 183Q91 183 68 207T44 269Q44 306 67 329T131 353Q171 353 193 330T216 269Q216 231 194 207T131 183Z" />
<glyph unicode="&#xb8;" horiz-adv-x="432" d="M208 -197Q189 -197 168 -195T128 -186Q111 -181 105 -168T101 -142T115 -122T145 -121Q158 -125 170 -127T194 -129Q220 -129 233 -123T246 -103Q246 -93 238 -88T209 -83Q202 -83 195 -83T181 -85Q174 -87 169
-86T158 -81Q154 -77 153 -71T153 -54L164 20H240L227 -56L190 -42Q202 -38 214 -36T236 -34Q280 -34 306 -53T332 -108Q332 -148 298 -172T208 -197Z" />
<glyph unicode="&#xb9;" horiz-adv-x="380" d="M100 282Q49 282 49 331Q49 355 62 367T100 380H157V599H205L124 556Q99 542 80 549T51 573T47 610T77 643L161 689Q178 698 193 703T226 709Q242 709 253 703T270 686T276 657V380H308Q359 380 359 331Q359 308
346 295T308 282H100Z" />
<glyph unicode="&#xba;" horiz-adv-x="361" d="M181 408Q134 408 97 427T39 480T17 563Q17 610 38 644T97 697T181 716Q228 716 265 698T323 645T345 563Q345 515 324 481T265 427T181 408ZM181 481Q211 481 229 502T247 563Q247 603 229 623T181 644Q151 644
133 624T115 563Q115 522 133 502T181 481Z" />
<glyph unicode="&#xbb;" horiz-adv-x="525" d="M86 80Q64 89 57 112T61 159L111 266L62 371Q50 397 57 419T88 452Q108 461 128 456T162 431L233 315Q249 290 249 266T233 217L159 101Q147 82 127 77T86 80ZM308 80Q286 89 279 112T283 159L333 266L284 371Q272
397 279 419T310 452Q330 461 350 456T384 431L455 315Q471 290 471 266T455 217L381 101Q369 82 349 77T308 80Z" />
<glyph unicode="&#xbc;" horiz-adv-x="923" d="M100 282Q49 282 49 331Q49 355 62 367T100 380H157V599H205L124 556Q99 542 80 549T51 573T47 610T77 643L161 689Q178 698 193 703T226 709Q242 709 253 703T270 686T276 657V380H308Q359 380 359 331Q359 308
346 295T308 282H100ZM360 13Q349 -7 333 -13T300 -16T271 1T256 31T265 69L625 692Q637 712 653 718T686 721T715 704T729 674T721 636L360 13ZM803 -4Q776 -4 761 9T746 45V66H618Q591 66 574 80T557 118Q557 134 564 148T583 179L729 388Q738 401 755 415T800
429Q830 429 845 413T860 367V160H875Q892 160 904 148T917 114Q917 88 905 77T875 66H860V45Q860 23 845 10T803 -4ZM748 160V308H766L654 143V160H748Z" />
<glyph unicode="&#xbd;" horiz-adv-x="973" d="M100 282Q49 282 49 331Q49 355 62 367T100 380H157V599H205L124 556Q99 542 80 549T51 573T47 610T77 643L161 689Q178 698 193 703T226 709Q242 709 253 703T270 686T276 657V380H308Q359 380 359 331Q359 308
346 295T308 282H100ZM360 13Q349 -7 333 -13T300 -16T271 1T256 31T265 69L625 692Q637 712 653 718T686 721T715 704T729 674T721 636L360 13ZM689 0Q665 0 650 15T634 54Q634 73 642 86T664 114L755 207Q777 230 786 248T796 285Q796 307 784 318T745 330Q731
330 716 326T688 314Q667 304 651 311T627 334T626 369T654 399Q679 413 711 420T775 427Q821 427 854 412T906 369T925 303Q925 271 910 241T858 174L774 90V98H900Q950 98 950 49Q950 26 937 13T900 0H689Z" />
<glyph unicode="&#xbe;" horiz-adv-x="923" d="M184 277Q146 277 113 284T53 306Q32 316 27 333T28 367T51 391T91 387Q110 379 129 375T168 371Q200 371 216 382T233 415Q233 433 220 440T180 448H137Q114 448 101 460T88 494Q88 517 101 529T137 541H168Q193
541 206 550T220 577Q220 594 206 604T161 615Q146 615 130 611T98 601Q75 590 58 596T34 619T33 652T60 681Q87 695 119 702T184 709Q255 709 295 679T336 597Q336 556 309 528T241 492V506Q290 503 319 475T348 399Q348 362 327 334T270 292T184 277ZM360 13Q349
-7 333 -13T300 -16T271 1T256 31T265 69L625 692Q637 712 653 718T686 721T715 704T729 674T721 636L360 13ZM803 -4Q776 -4 761 9T746 45V66H618Q591 66 574 80T557 118Q557 134 564 148T583 179L729 388Q738 401 755 415T800 429Q830 429 845 413T860 367V160H875Q892
160 904 148T917 114Q917 88 905 77T875 66H860V45Q860 23 845 10T803 -4ZM748 160V308H766L654 143V160H748Z" />
<glyph unicode="&#xbf;" horiz-adv-x="468" d="M232 -191Q166 -191 116 -171T39 -114T11 -30Q11 12 31 49T104 126Q135 149 152 169T178 206T190 238Q193 253 204 262T237 272Q260 272 272 260T285 223Q285 199 279 176T257 128T214 79Q185 53 175 35T164 -5Q164
-31 184 -46T242 -62Q275 -62 306 -55T370 -30Q395 -18 415 -22T447 -41T462 -75T454 -114T419 -145Q378 -167 330 -179T232 -191ZM240 326Q200 326 177 349T154 410Q154 448 177 472T240 496Q281 496 303 472T326 410Q326 373 304 350T240 326Z" />
<glyph unicode="&#xc0;" horiz-adv-x="753" d="M91 -9Q63 -9 46 4T24 39T32 88L288 649Q304 683 326 698T377 714Q406 714 428 699T465 649L723 88Q736 61 733 39T712 4T668 -9Q634 -9 616 7T583 57L523 196L585 153H168L230 196L171 57Q156 22 140 7T91 -9ZM375
540L247 235L220 274H533L506 235L377 540H375ZM318 772L228 867Q213 883 214 899T226 929T254 949T289 953T319 929L391 823Q401 807 397 792T380 767T349 756T318 772Z" />
<glyph unicode="&#xc1;" horiz-adv-x="753" d="M91 -9Q63 -9 46 4T24 39T32 88L288 649Q304 683 326 698T377 714Q406 714 428 699T465 649L723 88Q736 61 733 39T712 4T668 -9Q634 -9 616 7T583 57L523 196L585 153H168L230 196L171 57Q156 22 140 7T91 -9ZM375
540L247 235L220 274H533L506 235L377 540H375ZM437 772Q422 757 405 757T375 766T357 792T364 823L436 929Q448 949 465 952T500 950T529 930T541 900T527 867L437 772Z" />
<glyph unicode="&#xc2;" horiz-adv-x="753" d="M91 -9Q63 -9 46 4T24 39T32 88L288 649Q304 683 326 698T377 714Q406 714 428 699T465 649L723 88Q736 61 733 39T712 4T668 -9Q634 -9 616 7T583 57L523 196L585 153H168L230 196L171 57Q156 22 140 7T91 -9ZM375
540L247 235L220 274H533L506 235L377 540H375ZM300 773Q286 757 269 756T238 764T220 787T227 818L291 907Q308 931 329 942T377 954Q404 954 425 943T464 907L527 818Q539 802 535 788T518 764T487 756T455 773L377 860L300 773Z" />
<glyph unicode="&#xc3;" horiz-adv-x="753" d="M91 -9Q63 -9 46 4T24 39T32 88L288 649Q304 683 326 698T377 714Q406 714 428 699T465 649L723 88Q736 61 733 39T712 4T668 -9Q634 -9 616 7T583 57L523 196L585 153H168L230 196L171 57Q156 22 140 7T91 -9ZM375
540L247 235L220 274H533L506 235L377 540H375ZM185 763Q166 764 156 775T150 806Q163 864 200 895T288 927Q316 927 340 918T386 897T428 876T469 867Q492 867 507 877T528 905Q535 920 544 928T569 934Q588 933 598 922T604 891Q592 833 556 802T467 770Q439
770 415 779T368 800T326 821T285 830Q263 830 248 820T226 792Q219 778 210 770T185 763Z" />
<glyph unicode="&#xc4;" horiz-adv-x="753" d="M91 -9Q63 -9 46 4T24 39T32 88L288 649Q304 683 326 698T377 714Q406 714 428 699T465 649L723 88Q736 61 733 39T712 4T668 -9Q634 -9 616 7T583 57L523 196L585 153H168L230 196L171 57Q156 22 140 7T91 -9ZM375
540L247 235L220 274H533L506 235L377 540H375ZM476 776Q442 776 424 794T405 847Q405 881 423 899T476 917Q510 917 528 899T546 847Q546 813 528 795T476 776ZM279 776Q245 776 227 794T208 847Q208 881 226 899T279 917Q313 917 331 899T349 847Q349 813 331
795T279 776Z" />
<glyph unicode="&#xc5;" horiz-adv-x="753" d="M91 -9Q63 -9 46 4T24 39T32 88L288 649Q304 683 326 698T377 714Q406 714 428 699T465 649L723 88Q736 61 733 39T712 4T668 -9Q634 -9 616 7T583 57L523 196L585 153H168L230 196L171 57Q156 22 140 7T91 -9ZM375
540L247 235L220 274H533L506 235L377 540H375ZM377 753Q341 753 311 770T264 816T247 880Q247 916 264 944T311 989T377 1006Q414 1006 443 990T490 945T507 880Q507 845 490 816T444 770T377 753ZM377 818Q404 818 421 836T438 880Q438 907 421 924T377 941Q351
941 334 924T316 880Q316 854 333 836T377 818Z" />
<glyph unicode="&#xc6;" horiz-adv-x="1000" d="M61 -9Q27 -9 10 5T-7 41T7 87L370 664Q383 686 401 695T445 705H893Q924 705 940 690T956 645Q956 615 940 600T893 584H516L554 620L607 376L556 419H872Q903 419 918 404T934 358Q934 328 919 313T872 297H583L615
340L672 79L619 121H893Q924 121 940 106T956 61Q956 31 940 16T893 0H608Q552 0 539 55L508 199L557 153H174L231 194L139 39Q125 16 108 4T61 -9ZM433 535L256 237L247 274H531L501 232L435 535H433Z" />
<glyph unicode="&#xc7;" horiz-adv-x="684" d="M413 -11Q299 -11 218 34T94 160T50 353Q50 436 74 502T146 616T260 690T413 716Q463 716 514 704T604 668Q629 654 638 633T644 591T627 555T593 536T548 545Q518 563 485 571T418 579Q351 579 306 553T237 476T214
353Q214 281 237 230T305 153T418 126Q450 126 483 134T548 159Q574 172 594 169T628 151T645 116T641 76T611 42Q574 17 520 3T413 -11ZM393 -197Q374 -197 353 -195T313 -186Q296 -181 290 -168T286 -142T300 -122T330 -121Q343 -125 355 -127T379 -129Q405 -129
418 -123T431 -103Q431 -93 423 -88T394 -83Q387 -83 380 -83T366 -85Q359 -87 354 -86T343 -81Q339 -77 338 -71T338 -54L349 20H425L412 -56L375 -42Q387 -38 399 -36T421 -34Q465 -34 491 -53T517 -108Q517 -148 483 -172T393 -197Z" />
<glyph unicode="&#xc8;" horiz-adv-x="605" d="M152 0Q113 0 92 21T71 81V624Q71 663 92 684T152 705H501Q531 705 546 690T562 645Q562 615 547 600T501 584H219V419H478Q509 419 524 404T540 358Q540 328 525 313T478 297H219V121H501Q531 121 546 106T562 61Q562
31 547 16T501 0H152ZM272 772L182 867Q167 883 168 899T180 929T208 949T243 953T273 929L345 823Q355 807 351 792T334 767T303 756T272 772Z" />
<glyph unicode="&#xc9;" horiz-adv-x="605" d="M152 0Q113 0 92 21T71 81V624Q71 663 92 684T152 705H501Q531 705 546 690T562 645Q562 615 547 600T501 584H219V419H478Q509 419 524 404T540 358Q540 328 525 313T478 297H219V121H501Q531 121 546 106T562 61Q562
31 547 16T501 0H152ZM391 772Q376 757 359 757T329 766T311 792T318 823L390 929Q402 949 419 952T454 950T483 930T495 900T481 867L391 772Z" />
<glyph unicode="&#xca;" horiz-adv-x="605" d="M152 0Q113 0 92 21T71 81V624Q71 663 92 684T152 705H501Q531 705 546 690T562 645Q562 615 547 600T501 584H219V419H478Q509 419 524 404T540 358Q540 328 525 313T478 297H219V121H501Q531 121 546 106T562 61Q562
31 547 16T501 0H152ZM254 773Q240 757 223 756T192 764T174 787T181 818L245 907Q262 931 283 942T331 954Q358 954 379 943T418 907L481 818Q493 802 489 788T472 764T441 756T409 773L331 860L254 773Z" />
<glyph unicode="&#xcb;" horiz-adv-x="605" d="M152 0Q113 0 92 21T71 81V624Q71 663 92 684T152 705H501Q531 705 546 690T562 645Q562 615 547 600T501 584H219V419H478Q509 419 524 404T540 358Q540 328 525 313T478 297H219V121H501Q531 121 546 106T562 61Q562
31 547 16T501 0H152ZM430 776Q396 776 378 794T359 847Q359 881 377 899T430 917Q464 917 482 899T500 847Q500 813 482 795T430 776ZM233 776Q199 776 181 794T162 847Q162 881 180 899T233 917Q267 917 285 899T303 847Q303 813 285 795T233 776Z" />
<glyph unicode="&#xcc;" horiz-adv-x="297" d="M149 -9Q111 -9 91 12T71 71V634Q71 672 91 693T149 714Q186 714 206 693T226 634V71Q226 33 207 12T149 -9ZM89 772L-1 867Q-16 883 -15 899T-3 929T25 949T60 953T90 929L162 823Q172 807 168 792T151 767T120
756T89 772Z" />
<glyph unicode="&#xcd;" horiz-adv-x="297" d="M149 -9Q111 -9 91 12T71 71V634Q71 672 91 693T149 714Q186 714 206 693T226 634V71Q226 33 207 12T149 -9ZM208 772Q193 757 176 757T146 766T128 792T135 823L207 929Q219 949 236 952T271 950T300 930T312 900T298
867L208 772Z" />
<glyph unicode="&#xce;" horiz-adv-x="297" d="M149 -9Q111 -9 91 12T71 71V634Q71 672 91 693T149 714Q186 714 206 693T226 634V71Q226 33 207 12T149 -9ZM71 773Q57 757 40 756T9 764T-9 787T-2 818L62 907Q79 931 100 942T148 954Q175 954 196 943T235 907L298
818Q310 802 306 788T289 764T258 756T226 773L148 860L71 773Z" />
<glyph unicode="&#xcf;" horiz-adv-x="297" d="M149 -9Q111 -9 91 12T71 71V634Q71 672 91 693T149 714Q186 714 206 693T226 634V71Q226 33 207 12T149 -9ZM247 776Q213 776 195 794T176 847Q176 881 194 899T247 917Q281 917 299 899T317 847Q317 813 299 795T247
776ZM50 776Q16 776 -2 794T-21 847Q-21 881 -3 899T50 917Q84 917 102 899T120 847Q120 813 102 795T50 776Z" />
<glyph unicode="&#xd0;" horiz-adv-x="774" d="M152 0Q113 0 92 21T71 81V624Q71 663 92 684T152 705H347Q528 705 626 614T725 353Q725 268 700 203T626 92T508 24T347 0H152ZM226 127H338Q395 127 437 141T507 183T549 253T563 353Q563 467 507 522T338 578H226V127ZM35
301Q7 301 -8 315T-23 356Q-23 383 -8 397T35 412H363Q391 412 406 398T421 356Q421 330 406 316T363 301H35Z" />
<glyph unicode="&#xd1;" horiz-adv-x="753" d="M143 -9Q108 -9 90 10T71 66V636Q71 674 89 694T139 714Q166 714 180 704T214 669L565 222H538V640Q538 675 556 694T610 714Q645 714 663 695T682 640V63Q682 30 665 11T619 -9Q591 -9 575 2T539 37L189 484H215V66Q215
30 197 11T143 -9ZM184 763Q165 764 155 775T149 806Q162 864 199 895T287 927Q315 927 339 918T385 897T427 876T468 867Q491 867 506 877T527 905Q534 920 543 928T568 934Q587 933 597 922T603 891Q591 833 555 802T466 770Q438 770 414 779T367 800T325 821T284
830Q262 830 247 820T225 792Q218 778 209 770T184 763Z" />
<glyph unicode="&#xd2;" horiz-adv-x="796" d="M398 -11Q294 -11 216 34T94 162T50 353Q50 436 74 502T145 616T255 690T398 716Q504 716 582 671T703 545T747 354Q747 271 722 204T651 89T541 15T398 -11ZM398 121Q457 121 498 148T562 228T585 353Q585 463 536
523T398 584Q340 584 298 557T234 478T212 353Q212 244 261 183T398 121ZM338 772L248 867Q233 883 234 899T246 929T274 949T309 953T339 929L411 823Q421 807 417 792T400 767T369 756T338 772Z" />
<glyph unicode="&#xd3;" horiz-adv-x="796" d="M398 -11Q294 -11 216 34T94 162T50 353Q50 436 74 502T145 616T255 690T398 716Q504 716 582 671T703 545T747 354Q747 271 722 204T651 89T541 15T398 -11ZM398 121Q457 121 498 148T562 228T585 353Q585 463 536
523T398 584Q340 584 298 557T234 478T212 353Q212 244 261 183T398 121ZM457 772Q442 757 425 757T395 766T377 792T384 823L456 929Q468 949 485 952T520 950T549 930T561 900T547 867L457 772Z" />
<glyph unicode="&#xd4;" horiz-adv-x="796" d="M398 -11Q294 -11 216 34T94 162T50 353Q50 436 74 502T145 616T255 690T398 716Q504 716 582 671T703 545T747 354Q747 271 722 204T651 89T541 15T398 -11ZM398 121Q457 121 498 148T562 228T585 353Q585 463 536
523T398 584Q340 584 298 557T234 478T212 353Q212 244 261 183T398 121ZM320 773Q306 757 289 756T258 764T240 787T247 818L311 907Q328 931 349 942T397 954Q424 954 445 943T484 907L547 818Q559 802 555 788T538 764T507 756T475 773L397 860L320 773Z" />
<glyph unicode="&#xd5;" horiz-adv-x="796" d="M398 -11Q294 -11 216 34T94 162T50 353Q50 436 74 502T145 616T255 690T398 716Q504 716 582 671T703 545T747 354Q747 271 722 204T651 89T541 15T398 -11ZM398 121Q457 121 498 148T562 228T585 353Q585 463 536
523T398 584Q340 584 298 557T234 478T212 353Q212 244 261 183T398 121ZM205 763Q186 764 176 775T170 806Q183 864 220 895T308 927Q336 927 360 918T406 897T448 876T489 867Q512 867 527 877T548 905Q555 920 564 928T589 934Q608 933 618 922T624 891Q612
833 576 802T487 770Q459 770 435 779T388 800T346 821T305 830Q283 830 268 820T246 792Q239 778 230 770T205 763Z" />
<glyph unicode="&#xd6;" horiz-adv-x="796" d="M398 -11Q294 -11 216 34T94 162T50 353Q50 436 74 502T145 616T255 690T398 716Q504 716 582 671T703 545T747 354Q747 271 722 204T651 89T541 15T398 -11ZM398 121Q457 121 498 148T562 228T585 353Q585 463 536
523T398 584Q340 584 298 557T234 478T212 353Q212 244 261 183T398 121ZM496 776Q462 776 444 794T425 847Q425 881 443 899T496 917Q530 917 548 899T566 847Q566 813 548 795T496 776ZM299 776Q265 776 247 794T228 847Q228 881 246 899T299 917Q333 917 351
899T369 847Q369 813 351 795T299 776Z" />
<glyph unicode="&#xd7;" horiz-adv-x="600" d="M169 83Q151 64 131 65T96 81T80 116T97 156L227 286L95 418Q80 433 79 450T84 480T106 502T136 508T169 490L300 359L431 490Q450 509 471 508T506 492T522 457T505 418L373 286L503 156Q518 140 520 124T514 94T493
72T463 66T431 83L300 213L169 83Z" />
<glyph unicode="&#xd8;" horiz-adv-x="796" d="M398 -11Q294 -11 216 34T94 162T50 353Q50 436 74 502T145 616T255 690T398 716Q504 716 582 671T703 545T747 354Q747 271 722 204T651 89T541 15T398 -11ZM398 121Q457 121 498 148T562 228T585 353Q585 463 536
523T398 584Q340 584 298 557T234 478T212 353Q212 244 261 183T398 121ZM242 -31Q230 -50 213 -56T179 -58T149 -40T133 -9T143 31L190 109L236 177L480 596L507 655L554 736Q566 755 583 761T617 763T647 746T663 715T653 675L606 596L559 528L316 110L289 51L242
-31Z" />
<glyph unicode="&#xd9;" horiz-adv-x="743" d="M373 -11Q298 -11 241 8T144 66T86 161T66 295V635Q66 674 86 694T144 714Q181 714 201 694T221 635V294Q221 208 260 165T373 121Q447 121 485 164T524 294V635Q524 674 544 694T601 714Q638 714 657 694T677 635V295Q677
194 643 126T541 23T373 -11ZM314 772L224 867Q209 883 210 899T222 929T250 949T285 953T315 929L387 823Q397 807 393 792T376 767T345 756T314 772Z" />
<glyph unicode="&#xda;" horiz-adv-x="743" d="M373 -11Q298 -11 241 8T144 66T86 161T66 295V635Q66 674 86 694T144 714Q181 714 201 694T221 635V294Q221 208 260 165T373 121Q447 121 485 164T524 294V635Q524 674 544 694T601 714Q638 714 657 694T677 635V295Q677
194 643 126T541 23T373 -11ZM433 772Q418 757 401 757T371 766T353 792T360 823L432 929Q444 949 461 952T496 950T525 930T537 900T523 867L433 772Z" />
<glyph unicode="&#xdb;" horiz-adv-x="743" d="M373 -11Q298 -11 241 8T144 66T86 161T66 295V635Q66 674 86 694T144 714Q181 714 201 694T221 635V294Q221 208 260 165T373 121Q447 121 485 164T524 294V635Q524 674 544 694T601 714Q638 714 657 694T677 635V295Q677
194 643 126T541 23T373 -11ZM296 773Q282 757 265 756T234 764T216 787T223 818L287 907Q304 931 325 942T373 954Q400 954 421 943T460 907L523 818Q535 802 531 788T514 764T483 756T451 773L373 860L296 773Z" />
<glyph unicode="&#xdc;" horiz-adv-x="743" d="M373 -11Q298 -11 241 8T144 66T86 161T66 295V635Q66 674 86 694T144 714Q181 714 201 694T221 635V294Q221 208 260 165T373 121Q447 121 485 164T524 294V635Q524 674 544 694T601 714Q638 714 657 694T677 635V295Q677
194 643 126T541 23T373 -11ZM472 776Q438 776 420 794T401 847Q401 881 419 899T472 917Q506 917 524 899T542 847Q542 813 524 795T472 776ZM275 776Q241 776 223 794T204 847Q204 881 222 899T275 917Q309 917 327 899T345 847Q345 813 327 795T275 776Z" />
<glyph unicode="&#xdd;" horiz-adv-x="631" d="M316 -9Q278 -9 258 12T238 72V362L270 273L34 608Q20 629 22 653T42 696T93 714Q117 714 136 702T174 664L334 433H302L462 664Q481 691 499 702T543 714Q575 714 593 698T612 657T595 606L362 273L393 362V72Q393
-9 316 -9ZM375 772Q360 757 343 757T313 766T295 792T302 823L374 929Q386 949 403 952T438 950T467 930T479 900T465 867L375 772Z" />
<glyph unicode="&#xde;" horiz-adv-x="667" d="M149 -2Q111 -2 91 19T71 77V628Q71 667 92 687T151 707Q187 707 206 688T226 638V593H396Q514 593 578 533T642 367Q642 261 578 201T396 141H226V77Q226 40 207 19T149 -2ZM226 262H369Q430 262 461 288T493 367Q493
420 462 446T369 472H226V262Z" />
<glyph unicode="&#xdf;" horiz-adv-x="676" d="M455 -11Q414 -11 370 -1T290 29Q270 39 262 55T256 89T270 119T297 136T332 131Q365 114 399 107T458 100Q488 100 505 112T522 147Q522 166 504 179T434 207Q355 230 323 264T291 348Q291 369 297 389T318 431T360
481Q383 504 392 521T401 557Q401 580 384 594T332 608Q272 608 241 572T209 471V68Q209 31 190 11T134 -9Q97 -9 78 11T58 68V446Q58 576 129 646T334 716Q400 716 446 698T518 648T543 570Q543 537 529 507T480 443Q460 423 449 410T433 388T428 367Q428 349
447 336T521 306Q594 285 626 248T658 157Q658 106 633 69T563 10T455 -11Z" />
<glyph unicode="&#xe0;" horiz-adv-x="557" d="M224 -11Q170 -11 127 10T60 67T36 148Q36 202 64 233T155 278T322 292H375V214H323Q272 214 241 209T196 190T182 154Q182 126 201 108T258 90Q287 90 309 103T345 140T358 194V309Q358 353 338 371T270 390Q243
390 212 384T142 362Q120 352 103 357T77 377T68 409T78 443T111 468Q158 487 199 494T276 501Q353 501 402 479T477 410T502 290V68Q502 31 484 11T432 -9Q398 -9 380 11T361 68V105L368 99Q362 65 343 41T293 3T224 -11ZM229 562L135 692Q122 712 125 729T141
759T172 777T208 776T236 748L307 607Q316 589 310 574T289 550T257 544T229 562Z" />
<glyph unicode="&#xe1;" horiz-adv-x="557" d="M224 -11Q170 -11 127 10T60 67T36 148Q36 202 64 233T155 278T322 292H375V214H323Q272 214 241 209T196 190T182 154Q182 126 201 108T258 90Q287 90 309 103T345 140T358 194V309Q358 353 338 371T270 390Q243
390 212 384T142 362Q120 352 103 357T77 377T68 409T78 443T111 468Q158 487 199 494T276 501Q353 501 402 479T477 410T502 290V68Q502 31 484 11T432 -9Q398 -9 380 11T361 68V105L368 99Q362 65 343 41T293 3T224 -11ZM338 562Q326 546 310 544T278 550T257
573T259 607L330 748Q340 770 357 776T393 777T425 760T442 729T431 692L338 562Z" />
<glyph unicode="&#xe2;" horiz-adv-x="557" d="M224 -11Q170 -11 127 10T60 67T36 148Q36 202 64 233T155 278T322 292H375V214H323Q272 214 241 209T196 190T182 154Q182 126 201 108T258 90Q287 90 309 103T345 140T358 194V309Q358 353 338 371T270 390Q243
390 212 384T142 362Q120 352 103 357T77 377T68 409T78 443T111 468Q158 487 199 494T276 501Q353 501 402 479T477 410T502 290V68Q502 31 484 11T432 -9Q398 -9 380 11T361 68V105L368 99Q362 65 343 41T293 3T224 -11ZM431 606Q441 587 436 572T416 550T386
544T359 563L283 678L207 563Q196 546 180 544T150 549T131 572T135 606L200 725Q214 752 235 765T283 779Q311 779 332 766T367 725L431 606Z" />
<glyph unicode="&#xe3;" horiz-adv-x="557" d="M224 -11Q170 -11 127 10T60 67T36 148Q36 202 64 233T155 278T322 292H375V214H323Q272 214 241 209T196 190T182 154Q182 126 201 108T258 90Q287 90 309 103T345 140T358 194V309Q358 353 338 371T270 390Q243
390 212 384T142 362Q120 352 103 357T77 377T68 409T78 443T111 468Q158 487 199 494T276 501Q353 501 402 479T477 410T502 290V68Q502 31 484 11T432 -9Q398 -9 380 11T361 68V105L368 99Q362 65 343 41T293 3T224 -11ZM117 578Q99 579 90 589T85 621Q89 640
97 661T121 700T157 730T208 742Q234 742 253 733T288 712T319 691T354 682Q373 682 387 693T407 723Q412 736 421 743T449 749Q467 748 475 737T481 706Q476 680 462 652T422 605T358 585Q332 585 313 594T278 615T246 636T212 645Q193 645 179 634T159 604Q155
594 146 586T117 578Z" />
<glyph unicode="&#xe4;" horiz-adv-x="557" d="M224 -11Q170 -11 127 10T60 67T36 148Q36 202 64 233T155 278T322 292H375V214H323Q272 214 241 209T196 190T182 154Q182 126 201 108T258 90Q287 90 309 103T345 140T358 194V309Q358 353 338 371T270 390Q243
390 212 384T142 362Q120 352 103 357T77 377T68 409T78 443T111 468Q158 487 199 494T276 501Q353 501 402 479T477 410T502 290V68Q502 31 484 11T432 -9Q398 -9 380 11T361 68V105L368 99Q362 65 343 41T293 3T224 -11ZM382 585Q348 585 330 603T311 656Q311
690 329 708T382 726Q416 726 434 708T452 656Q452 622 434 604T382 585ZM185 585Q151 585 133 603T114 656Q114 690 132 708T185 726Q219 726 237 708T255 656Q255 622 237 604T185 585Z" />
<glyph unicode="&#xe5;" horiz-adv-x="557" d="M224 -11Q170 -11 127 10T60 67T36 148Q36 202 64 233T155 278T322 292H375V214H323Q272 214 241 209T196 190T182 154Q182 126 201 108T258 90Q287 90 309 103T345 140T358 194V309Q358 353 338 371T270 390Q243
390 212 384T142 362Q120 352 103 357T77 377T68 409T78 443T111 468Q158 487 199 494T276 501Q353 501 402 479T477 410T502 290V68Q502 31 484 11T432 -9Q398 -9 380 11T361 68V105L368 99Q362 65 343 41T293 3T224 -11ZM283 545Q247 545 217 562T170 608T153
672Q153 708 170 736T217 781T283 798Q320 798 349 782T396 737T413 672Q413 637 396 608T350 562T283 545ZM283 610Q310 610 327 628T344 672Q344 699 327 716T283 733Q257 733 240 716T222 672Q222 646 239 628T283 610Z" />
<glyph unicode="&#xe6;" horiz-adv-x="868" d="M237 -11Q175 -11 130 10T61 67T36 148Q36 202 64 233T156 278T326 292H371V214H323Q272 214 241 209T196 190T182 154Q182 126 201 108T258 90Q288 90 310 103T344 141T357 197V310Q357 353 337 371T270 390Q244
390 212 384T143 362Q120 352 104 357T78 377T68 409T79 443T112 468Q158 487 200 494T276 501Q343 501 390 479T460 410H428Q455 455 503 478T606 501Q659 501 701 484T774 435T821 358T838 255V250Q838 232 827 223T791 214H492V292H728L713 278Q713 319 702
346T668 387T612 401Q577 401 552 385T514 337T501 259V252Q501 174 533 138T637 102Q662 102 692 108T750 127Q773 139 790 135T818 118T829 88T822 55T793 27Q758 8 716 -1T633 -11Q551 -11 490 21T403 119H427Q409 58 360 24T237 -11Z" />
<glyph unicode="&#xe7;" horiz-adv-x="478" d="M297 -11Q217 -11 158 20T66 110T34 247Q34 306 52 353T104 433T188 483T297 501Q328 501 363 494T432 468Q452 459 459 443T465 409T453 378T426 360T390 365Q371 376 351 381T312 386Q282 386 259 377T221 350T197
306T188 246Q188 180 220 143T312 105Q330 105 350 109T390 125Q410 135 426 130T451 112T462 81T457 47T430 21Q396 4 362 -3T297 -11ZM286 -197Q267 -197 246 -195T206 -186Q189 -181 183 -168T179 -142T193 -122T223 -121Q236 -125 248 -127T272 -129Q298 -129
311 -123T324 -103Q324 -93 316 -88T287 -83Q280 -83 273 -83T259 -85Q252 -87 247 -86T236 -81Q232 -77 231 -71T231 -54L242 20H318L305 -56L268 -42Q280 -38 292 -36T314 -34Q358 -34 384 -53T410 -108Q410 -148 376 -172T286 -197Z" />
<glyph unicode="&#xe8;" horiz-adv-x="549" d="M313 -11Q226 -11 164 20T68 109T34 245Q34 321 66 378T155 468T286 501Q339 501 382 484T456 434T503 355T519 251Q519 232 507 223T472 213H158V291H410L394 277Q394 318 382 345T348 387T292 401Q255 401 229
384T189 335T175 258V250Q175 174 210 138T316 102Q340 102 371 108T429 127Q452 138 470 135T498 118T509 88T502 55T472 27Q438 8 396 -1T313 -11ZM233 562L139 692Q126 712 129 729T145 759T176 777T212 776T240 748L311 607Q320 589 314 574T293 550T261 544T233
562Z" />
<glyph unicode="&#xe9;" horiz-adv-x="549" d="M313 -11Q226 -11 164 20T68 109T34 245Q34 321 66 378T155 468T286 501Q339 501 382 484T456 434T503 355T519 251Q519 232 507 223T472 213H158V291H410L394 277Q394 318 382 345T348 387T292 401Q255 401 229
384T189 335T175 258V250Q175 174 210 138T316 102Q340 102 371 108T429 127Q452 138 470 135T498 118T509 88T502 55T472 27Q438 8 396 -1T313 -11ZM342 562Q330 546 314 544T282 550T261 573T263 607L334 748Q344 770 361 776T397 777T429 760T446 729T435 692L342
562Z" />
<glyph unicode="&#xea;" horiz-adv-x="549" d="M313 -11Q226 -11 164 20T68 109T34 245Q34 321 66 378T155 468T286 501Q339 501 382 484T456 434T503 355T519 251Q519 232 507 223T472 213H158V291H410L394 277Q394 318 382 345T348 387T292 401Q255 401 229
384T189 335T175 258V250Q175 174 210 138T316 102Q340 102 371 108T429 127Q452 138 470 135T498 118T509 88T502 55T472 27Q438 8 396 -1T313 -11ZM435 606Q445 587 440 572T420 550T390 544T363 563L287 678L211 563Q200 546 184 544T154 549T135 572T139 606L204
725Q218 752 239 765T287 779Q315 779 336 766T371 725L435 606Z" />
<glyph unicode="&#xeb;" horiz-adv-x="549" d="M313 -11Q226 -11 164 20T68 109T34 245Q34 321 66 378T155 468T286 501Q339 501 382 484T456 434T503 355T519 251Q519 232 507 223T472 213H158V291H410L394 277Q394 318 382 345T348 387T292 401Q255 401 229
384T189 335T175 258V250Q175 174 210 138T316 102Q340 102 371 108T429 127Q452 138 470 135T498 118T509 88T502 55T472 27Q438 8 396 -1T313 -11ZM386 585Q352 585 334 603T315 656Q315 690 333 708T386 726Q420 726 438 708T456 656Q456 622 438 604T386 585ZM189
585Q155 585 137 603T118 656Q118 690 136 708T189 726Q223 726 241 708T259 656Q259 622 241 604T189 585Z" />
<glyph unicode="&#xec;" horiz-adv-x="268" d="M134 -8Q97 -8 78 13T58 74V416Q58 456 77 477T134 499Q170 499 189 478T209 416V74Q209 35 190 14T134 -8ZM80 562L-14 692Q-27 712 -24 729T-8 759T23 777T59 776T87 748L158 607Q167 589 161 574T140 550T108
544T80 562Z" />
<glyph unicode="&#xed;" horiz-adv-x="268" d="M134 -8Q97 -8 78 13T58 74V416Q58 456 77 477T134 499Q170 499 189 478T209 416V74Q209 35 190 14T134 -8ZM189 562Q177 546 161 544T129 550T108 573T110 607L181 748Q191 770 208 776T244 777T276 760T293 729T282
692L189 562Z" />
<glyph unicode="&#xee;" horiz-adv-x="268" d="M134 -8Q97 -8 78 13T58 74V416Q58 456 77 477T134 499Q170 499 189 478T209 416V74Q209 35 190 14T134 -8ZM282 606Q292 587 287 572T267 550T237 544T210 563L134 678L58 563Q47 546 31 544T1 549T-18 572T-14
606L51 725Q65 752 86 765T134 779Q162 779 183 766T218 725L282 606Z" />
<glyph unicode="&#xef;" horiz-adv-x="268" d="M134 -8Q97 -8 78 13T58 74V416Q58 456 77 477T134 499Q170 499 189 478T209 416V74Q209 35 190 14T134 -8ZM233 585Q199 585 181 603T162 656Q162 690 180 708T233 726Q267 726 285 708T303 656Q303 622 285 604T233
585ZM36 585Q2 585 -16 603T-35 656Q-35 690 -17 708T36 726Q70 726 88 708T106 656Q106 622 88 604T36 585Z" />
<glyph unicode="&#xf0;" horiz-adv-x="593" d="M288 -11Q213 -11 156 19T66 101T34 222Q34 289 64 339T149 419T274 448Q318 448 353 436T412 396T448 324H419Q419 401 383 458T294 552L316 551L171 484Q148 473 131 479T107 500T106 532T137 559L228 601L232
586Q216 594 199 600T164 612Q136 620 126 638T121 674T146 704T195 707Q240 697 279 681T352 645L320 643L446 702Q469 713 486 707T510 686T513 655T483 628L402 590L407 606Q458 566 492 515T543 407T561 290Q561 220 543 165T490 70T405 10T288 -11ZM294 104Q328
104 352 118T389 159T402 221Q402 275 374 306T293 337Q260 337 236 323T199 283T186 221Q186 166 214 135T294 104Z" />
<glyph unicode="&#xf1;" horiz-adv-x="595" d="M134 -9Q97 -9 78 11T58 68V423Q58 460 77 479T132 499Q168 499 187 480T206 423V366L195 399Q218 448 263 474T367 501Q426 501 464 479T521 411T540 295V68Q540 31 521 11T464 -9Q428 -9 409 11T389 68V288Q389
339 371 361T314 384Q266 384 238 354T209 274V68Q209 -9 134 -9ZM133 578Q115 579 106 589T101 621Q105 640 113 661T137 700T173 730T224 742Q250 742 269 733T304 712T335 691T370 682Q389 682 403 693T423 723Q428 736 437 743T465 749Q483 748 491 737T497
706Q492 680 478 652T438 605T374 585Q348 585 329 594T294 615T262 636T228 645Q209 645 195 634T175 604Q171 594 162 586T133 578Z" />
<glyph unicode="&#xf2;" horiz-adv-x="589" d="M294 -11Q215 -11 157 20T66 109T34 246Q34 305 52 352T104 432T187 483T294 501Q373 501 431 470T522 382T555 246Q555 186 537 139T484 58T402 7T294 -11ZM294 102Q327 102 351 118T389 165T403 246Q403 319 373
353T294 388Q262 388 238 373T200 327T186 246Q186 173 216 138T294 102ZM240 562L146 692Q133 712 136 729T152 759T183 777T219 776T247 748L318 607Q327 589 321 574T300 550T268 544T240 562Z" />
<glyph unicode="&#xf3;" horiz-adv-x="589" d="M294 -11Q215 -11 157 20T66 109T34 246Q34 305 52 352T104 432T187 483T294 501Q373 501 431 470T522 382T555 246Q555 186 537 139T484 58T402 7T294 -11ZM294 102Q327 102 351 118T389 165T403 246Q403 319 373
353T294 388Q262 388 238 373T200 327T186 246Q186 173 216 138T294 102ZM349 562Q337 546 321 544T289 550T268 573T270 607L341 748Q351 770 368 776T404 777T436 760T453 729T442 692L349 562Z" />
<glyph unicode="&#xf4;" horiz-adv-x="589" d="M294 -11Q215 -11 157 20T66 109T34 246Q34 305 52 352T104 432T187 483T294 501Q373 501 431 470T522 382T555 246Q555 186 537 139T484 58T402 7T294 -11ZM294 102Q327 102 351 118T389 165T403 246Q403 319 373
353T294 388Q262 388 238 373T200 327T186 246Q186 173 216 138T294 102ZM442 606Q452 587 447 572T427 550T397 544T370 563L294 678L218 563Q207 546 191 544T161 549T142 572T146 606L211 725Q225 752 246 765T294 779Q322 779 343 766T378 725L442 606Z" />
<glyph unicode="&#xf5;" horiz-adv-x="589" d="M294 -11Q215 -11 157 20T66 109T34 246Q34 305 52 352T104 432T187 483T294 501Q373 501 431 470T522 382T555 246Q555 186 537 139T484 58T402 7T294 -11ZM294 102Q327 102 351 118T389 165T403 246Q403 319 373
353T294 388Q262 388 238 373T200 327T186 246Q186 173 216 138T294 102ZM128 578Q110 579 101 589T96 621Q100 640 108 661T132 700T168 730T219 742Q245 742 264 733T299 712T330 691T365 682Q384 682 398 693T418 723Q423 736 432 743T460 749Q478 748 486 737T492
706Q487 680 473 652T433 605T369 585Q343 585 324 594T289 615T257 636T223 645Q204 645 190 634T170 604Q166 594 157 586T128 578Z" />
<glyph unicode="&#xf6;" horiz-adv-x="589" d="M294 -11Q215 -11 157 20T66 109T34 246Q34 305 52 352T104 432T187 483T294 501Q373 501 431 470T522 382T555 246Q555 186 537 139T484 58T402 7T294 -11ZM294 102Q327 102 351 118T389 165T403 246Q403 319 373
353T294 388Q262 388 238 373T200 327T186 246Q186 173 216 138T294 102ZM393 585Q359 585 341 603T322 656Q322 690 340 708T393 726Q427 726 445 708T463 656Q463 622 445 604T393 585ZM196 585Q162 585 144 603T125 656Q125 690 143 708T196 726Q230 726 248
708T266 656Q266 622 248 604T196 585Z" />
<glyph unicode="&#xf7;" horiz-adv-x="600" d="M100 235Q75 235 61 248T47 287Q47 312 61 325T100 339H500Q526 339 539 326T553 287Q553 262 540 249T500 235H100ZM294 30Q265 30 249 46T233 91Q233 120 249 136T294 153Q323 153 339 137T355 91Q355 62 340 46T294
30ZM294 421Q265 421 249 437T233 483Q233 512 249 528T294 544Q323 544 339 529T355 483Q355 454 340 438T294 421Z" />
<glyph unicode="&#xf8;" horiz-adv-x="589" d="M294 -11Q215 -11 157 20T66 109T34 246Q34 305 52 352T104 432T187 483T294 501Q373 501 431 470T522 382T555 246Q555 186 537 139T484 58T402 7T294 -11ZM295 98Q329 98 355 114T395 163T410 246Q410 321 379
357T294 393Q260 393 234 377T193 328T178 246Q178 172 210 135T295 98ZM179 -36Q169 -54 152 -57T120 -52T100 -27T106 10L410 527Q421 546 438 548T469 542T490 517T484 480L179 -36Z" />
<glyph unicode="&#xf9;" horiz-adv-x="590" d="M239 -11Q177 -11 136 12T76 81T56 197V423Q56 461 75 480T131 499Q167 499 187 480T207 423V193Q207 149 225 128T282 106Q325 106 352 136T380 217V423Q380 461 399 480T455 499Q492 499 511 480T531 423V68Q531
-9 458 -9Q422 -9 403 11T384 68V135L399 96Q377 45 336 17T239 -11ZM240 563L146 693Q133 713 136 730T152 760T183 778T219 777T247 749L318 608Q327 590 321 575T300 551T268 545T240 563Z" />
<glyph unicode="&#xfa;" horiz-adv-x="590" d="M239 -11Q177 -11 136 12T76 81T56 197V423Q56 461 75 480T131 499Q167 499 187 480T207 423V193Q207 149 225 128T282 106Q325 106 352 136T380 217V423Q380 461 399 480T455 499Q492 499 511 480T531 423V68Q531
-9 458 -9Q422 -9 403 11T384 68V135L399 96Q377 45 336 17T239 -11ZM349 563Q337 547 321 545T289 551T268 574T270 608L341 749Q351 771 368 777T404 778T436 761T453 730T442 693L349 563Z" />
<glyph unicode="&#xfb;" horiz-adv-x="590" d="M239 -11Q177 -11 136 12T76 81T56 197V423Q56 461 75 480T131 499Q167 499 187 480T207 423V193Q207 149 225 128T282 106Q325 106 352 136T380 217V423Q380 461 399 480T455 499Q492 499 511 480T531 423V68Q531
-9 458 -9Q422 -9 403 11T384 68V135L399 96Q377 45 336 17T239 -11ZM442 607Q452 588 447 573T427 551T397 545T370 564L294 679L218 564Q207 547 191 545T161 550T142 573T146 607L211 726Q225 753 246 766T294 780Q322 780 343 767T378 726L442 607Z" />
<glyph unicode="&#xfc;" horiz-adv-x="590" d="M239 -11Q177 -11 136 12T76 81T56 197V423Q56 461 75 480T131 499Q167 499 187 480T207 423V193Q207 149 225 128T282 106Q325 106 352 136T380 217V423Q380 461 399 480T455 499Q492 499 511 480T531 423V68Q531
-9 458 -9Q422 -9 403 11T384 68V135L399 96Q377 45 336 17T239 -11ZM393 586Q359 586 341 604T322 657Q322 691 340 709T393 727Q427 727 445 709T463 657Q463 623 445 605T393 586ZM196 586Q162 586 144 604T125 657Q125 691 143 709T196 727Q230 727 248 709T266
657Q266 623 248 605T196 586Z" />
<glyph unicode="&#xfd;" horiz-adv-x="533" d="M192 -189Q166 -189 149 -175T129 -139T137 -91L204 57V-5L27 401Q17 427 20 449T42 485T94 499Q121 499 137 487T168 439L286 139H254L376 440Q390 474 407 486T455 499Q481 499 496 486T515 450T507 402L272 -131Q257
-165 239 -177T192 -189ZM322 562Q310 546 294 544T262 550T241 573T243 607L314 748Q324 770 341 776T377 777T409 760T426 729T415 692L322 562Z" />
<glyph unicode="&#xfe;" horiz-adv-x="610" d="M134 -189Q97 -189 78 -170T58 -112V637Q58 675 78 694T134 714Q170 714 189 695T209 637V394H196Q211 442 256 471T361 501Q425 501 473 470T549 382T576 246Q576 167 549 109T474 20T361 -11Q303 -11 258 17T197
92H209V-112Q209 -150 190 -169T134 -189ZM316 102Q348 102 372 118T410 165T424 246Q424 319 394 353T316 388Q284 388 260 373T221 327T207 246Q207 173 237 138T316 102Z" />
<glyph unicode="&#xff;" horiz-adv-x="533" d="M192 -189Q166 -189 149 -175T129 -139T137 -91L204 57V-5L27 401Q17 427 20 449T42 485T94 499Q121 499 137 487T168 439L286 139H254L376 440Q390 474 407 486T455 499Q481 499 496 486T515 450T507 402L272 -131Q257
-165 239 -177T192 -189ZM366 585Q332 585 314 603T295 656Q295 690 313 708T366 726Q400 726 418 708T436 656Q436 622 418 604T366 585ZM169 585Q135 585 117 603T98 656Q98 690 116 708T169 726Q203 726 221 708T239 656Q239 622 221 604T169 585Z" />
<glyph unicode="&#x2013;" horiz-adv-x="500" d="M37 224Q18 224 5 236T-9 268Q-9 287 4 299T37 312H463Q483 312 496 300T509 268Q509 249 496 237T463 224H37Z" />
<glyph unicode="&#x2014;" horiz-adv-x="1000" d="M37 224Q18 224 5 236T-9 268Q-9 287 4 299T37 312H963Q983 312 996 300T1009 268Q1009 249 996 237T963 224H37Z" />
<glyph unicode="&#x2018;" horiz-adv-x="260" d="M110 683Q124 702 141 704T170 698T184 672T170 636Q147 609 139 582T131 534L127 574Q167 574 192 551T217 489Q217 452 194 429T131 405Q90 405 67 432T44 509Q44 535 49 562T68 619T110 683Z" />
<glyph unicode="&#x2019;" horiz-adv-x="260" d="M151 432Q136 413 119 411T90 417T76 443T91 479Q113 506 121 533T129 581L134 540Q94 540 69 563T44 625Q44 663 67 686T130 710Q171 710 194 683T217 606Q217 580 212 553T193 496T151 432Z" />
<glyph unicode="&#x201a;" horiz-adv-x="260" d="M151 -114Q136 -132 119 -134T90 -128T77 -103T91 -67Q113 -39 121 -12T129 36L134 -5Q94 -5 69 18T44 81Q44 118 67 141T130 165Q171 165 194 138T217 60Q217 34 212 7T193 -50T151 -114Z" />
<glyph unicode="&#x201c;" horiz-adv-x="472" d="M110 683Q124 702 141 704T170 698T184 672T170 636Q147 609 139 582T131 534L127 574Q167 574 192 551T217 489Q217 452 194 429T131 405Q90 405 67 432T44 509Q44 535 49 562T68 619T110 683ZM322 683Q336 702
353 704T382 698T396 672T382 636Q359 609 351 582T343 534L339 574Q379 574 404 551T429 489Q429 452 406 429T343 405Q302 405 279 432T256 509Q256 535 261 562T280 619T322 683Z" />
<glyph unicode="&#x201d;" horiz-adv-x="472" d="M151 432Q136 413 119 411T90 417T76 443T91 479Q113 506 121 533T129 581L134 540Q94 540 69 563T44 625Q44 663 67 686T130 710Q171 710 194 683T217 606Q217 580 212 553T193 496T151 432ZM363 432Q348 413
331 411T302 417T288 443T303 479Q325 506 333 533T341 581L346 540Q306 540 281 563T256 625Q256 663 279 686T342 710Q383 710 406 683T429 606Q429 580 424 553T405 496T363 432Z" />
<glyph unicode="&#x201e;" horiz-adv-x="472" d="M151 -114Q136 -132 119 -134T90 -128T77 -103T91 -67Q113 -39 121 -12T129 36L134 -5Q94 -5 69 18T44 81Q44 118 67 141T130 165Q171 165 194 138T217 60Q217 34 212 7T193 -50T151 -114ZM363 -114Q348 -132 331
-134T302 -128T289 -103T303 -67Q325 -39 333 -12T341 36L346 -5Q306 -5 281 18T256 81Q256 118 279 141T342 165Q383 165 406 138T429 60Q429 34 424 7T405 -50T363 -114Z" />
<glyph unicode="&#x2022;" horiz-adv-x="524" d="M262 88Q213 88 172 111T106 175T81 265Q81 311 104 351T169 417T262 443Q310 443 351 420T418 357T443 265Q443 216 419 176T353 112T262 88Z" />
<glyph unicode="&#x2039;" horiz-adv-x="303" d="M217 80Q197 71 177 76T144 101L70 217Q54 241 54 265T70 315L142 431Q155 451 175 456T216 452Q238 442 246 420T242 371L193 266L242 159Q254 135 247 112T217 80Z" />
<glyph unicode="&#x203a;" horiz-adv-x="303" d="M86 80Q64 89 57 112T61 159L111 266L62 371Q50 397 57 419T88 452Q108 461 128 456T162 431L233 315Q249 290 249 266T233 217L159 101Q147 82 127 77T86 80Z" />
</font>
</defs>
</svg>
